.
Авторизация | Регистрация
Хочешь лучшие торренты? Добавь свой email!
Добавить

Торрент скачать бесплатно

  • support: webmaster@btracker.club
» » Человек-муравей и Оса / Ant-Man and the Wasp (2018) DVD5 [Custom] торрент скачать бесплатно


    Человек-муравей и Оса / Ant-Man and the Wasp (2018) DVD5 [Custom] торрент скачать бесплатно

    Опубликовал: fregat | Дата: 30-12-2018, 16:12 | .torrent скачали: 0

    Человек-муравей и Оса / Ant-Man and the Wasp (2018) DVD5 [Custom]Производство: США/Marvel Studios Inc.
    Жанр: Фантастика, боевик, комедия, приключения
    Режиссер: Пейтон Рид
    Продюсер: Виктория Алонсо, Митчелл Белл, Стивен Бруссар

    Актеры
    Пол Радд, Эванджелин Лилли, Майкл Дуглас, Майкл Пенья, Уолтон Гоггинс, Бобби Каннавейл, Джуди Грир, Ти Ай, Давид Дастмалчян, Ханна Джон-Кэймен, Эбби Райдер Фортсон

    Описание

    Скотт Лэнг, известный также как Человек-муравей, уже заслужил право оказаться в команде Мстителей. Но желание быть ближе к дочери удерживает его в родном Сан-Франциско — до тех пор, пока доктор Хэнк Пим, создавший когда-то изменяющий размеры своего владельца чудо-костюм, не призывает Скотта присоединиться к новой опасной миссии. А помогать в противостоянии с коварным врагом Человеку-муравью будет новая напарница — Оса.

    Возраст: 12+ (зрителям, достигшим 12 лет)
    Рейтинг MPAA: PG-13 (детям до 13 лет просмотр нежелателен)
    Дата мировой премьеры: 25 июня 2018
    Дата российской премьеры: 5 июля 2018, WDSSPR

    Продолжительность: 01: 53: 16
    Качество видео: DVD5
    Перевод: Дублированный (лицензия)
    Субтитры: Русские, английские
    Видео: MPEG-2, 720x576@1024x576 (PAL 16: 9), ~4600 Kbps
    Аудио 1: AC3 5.1, 384 Kbps (Английский - оригинал)
    Аудио 2: AC3 5.1, 384 Kbps (Русский - дублированный)
    Title: Ant-Man and the Wasp (2018) DVD5
    Size: 4.37 Gb ( 4 581 674, 00 KBytes ) - DVD-5
    Enabled regions: 1, 2, 3, 4, 5, 6, 7, 8
    VTS_01 :
    Play Length: 00: 00: 00
    Video: PAL 4: 3 (720x576) VBR
    VTS_02 :
    Play Length: 01: 53: 16+00: 00: 15+00: 00: 10+{00: 00: 00}+{00: 00: 00}
    Video: PAL 16: 9 (720x576) VBR, Auto Letterboxed
    Audio:
    English, AC3, 3/2 (L, C, R, SL, SR)+LFE ch, 384 kbps, Delay -49 mSec
    Russian, AC3, 3/2 (L, C, R, SL, SR)+LFE ch, 384 kbps, Delay -49 mSec
    Subtitles:
    English
    Russian
    Russian
    Hindi
    Общее
    Полное имя : V: TorrentsAnt-Man and the Wasp (2018) DVD5VIDEO_TSVTS_02_2.VOB
    Формат : MPEG-PS
    Размер файла : 1024 Мбайт
    Продолжительность : 26 м. 8 с.
    Режим общего битрейта : Переменный
    Общий поток : 5478 Кбит/сек
    Видео
    Идентификатор : 224 (0xE0)
    Формат : MPEG Video
    Версия формата : Version 2
    Профиль формата : Main@Main
    Настройки формата : CustomMatrix/BVOP
    Параметр BVOP формата : Да
    Параметр матрицы формата : Выборочная
    Параметр GOP формата : Variable
    Продолжительность : 26 м. 7 с.
    Вид битрейта : Переменный
    Битрейт : 4601 Кбит/сек
    Максимальный битрейт : 7622 Кбит/сек
    Ширина : 720 пикселей
    Высота : 576 пикселей
    Соотношение сторон : 16: 9
    Частота кадров : 25, 000 кадров/сек
    Стандарт вещания : PAL
    Цветовое пространство : YUV
    Субдискретизация насыщенности : 4: 2: 0
    Битовая глубина : 8 бит
    Тип развёртки : Прогрессивная
    Порядок развёртки : Верхнее поле первое
    Метод сжатия : С потерями
    Бит/(Пиксели*Кадры) : 0.444
    Временной код первого кадра : 00: 26: 36: 14
    Оригинал временного кода : Group of pictures t_head
    GOP, открыто/закрыто : Открыто
    Размер потока : 860 Мбайт (84%)
    Аудио #1
    Идентификатор : 189 (0xBD)-128 (0x80)
    Формат : AC-3
    Формат/Информация : Audio Coding 3
    Параметр Endianness формата : Big
    Режим смешивания : DVD-Video
    Продолжительность : 26 м. 8 с.
    Вид битрейта : Постоянный
    Битрейт : 384 Кбит/сек
    Каналы : 6 каналов
    Расположение каналов : Front: L C R, Side: L R, LFE
    Частота : 48, 0 КГц
    Частота кадров : 31, 250 кадров/сек (1536 SPF)
    Битовая глубина : 16 бит
    Метод сжатия : С потерями
    Задержка видео : -736 мс.
    Размер потока : 71, 8 Мбайт (7%)
    ServiceKind/String : Complete Main
    Аудио #2
    Идентификатор : 189 (0xBD)-130 (0x82)
    Формат : AC-3
    Формат/Информация : Audio Coding 3
    Параметр Endianness формата : Big
    Режим смешивания : DVD-Video
    Продолжительность : 26 м. 8 с.
    Вид битрейта : Постоянный
    Битрейт : 384 Кбит/сек
    Каналы : 6 каналов
    Расположение каналов : Front: L C R, Side: L R, LFE
    Частота : 48, 0 КГц
    Частота кадров : 31, 250 кадров/сек (1536 SPF)
    Битовая глубина : 16 бит
    Метод сжатия : С потерями
    Задержка видео : -736 мс.
    Размер потока : 71, 8 Мбайт (7%)
    ServiceKind/String : Complete Main
    Текст #1
    Идентификатор : 189 (0xBD)-32 (0x20)
    Формат : RLE
    Формат/Информация : Run-length encoding
    Режим смешивания : DVD-Video
    Продолжительность : 26 м. 6 с.
    Задержка видео : -160 мс.
    Текст #2
    Идентификатор : 189 (0xBD)-33 (0x21)
    Формат : RLE
    Формат/Информация : Run-length encoding
    Режим смешивания : DVD-Video
    Продолжительность : 26 м. 6 с.
    Задержка видео : -200 мс.
    Меню


    Онлайн видео Человек-муравей и Оса



    Человек-муравей и Оса/Ant-Man and the Wasp (2018) DVD5 [Custom]
    Рейтинг →
     (голосов: 1, оценка 5/5, голосовать можно 1 раз )

    Другие торренты по теме:

  • Человек-муравей / Ant-Man (2015) WEBRip [1080p] [Трейлер]
  • Christophe Beck - Человек-муравей / Ant-Man (2015) [AAC|WEB-DL|256 кб / с]<Score> скачать через торрент бесплатно
  • Человек-муравей / Ant-Man (2015) CamRip [H.264] [MP4|688x366] [EN] скачать через торрент бесплатно
  • Человек-муравей / Ant-Man (2015) CamRip скачать через торрент бесплатно
  • Человек-муравей / Ant-Man (2015) WEBRip [H.264 / 1080p-LQ] [EN] скачать через торрент бесплатно
  • Человек-муравей / Ant-Man (2015) WEBRip [H.264] [EN] скачать через торрент бесплатно
  • Человек-муравей / Ant-Man (2015) WEBRip [H.264 / 720p-LQ] [звук c CamRip] скачать через торрент бесплатно
  • Человек-муравей / Ant-Man (2015) WEBRip [Звук c CAMRip] скачать через торрент бесплатно


    • Комментарии (0):

      Информация

      Информация

        Посетители, находящиеся в группе Гости, не могут оставлять комментарии в данной новости.

        ↓ Меню




        ↓ Опрос

        Вы добавили сайт в закладки?
        Да
        Нет


        Top 10 за месяц (Фильмы)