.
Авторизация | Регистрация
Хочешь лучшие торренты? Добавь свой email!
Добавить

Торрент скачать бесплатно

  • support: webmaster@btracker.club
» » Мег: Монстр глубины / The Meg (2018) DVD9 торрент скачать бесплатно


    Мег: Монстр глубины / The Meg (2018) DVD9 торрент скачать бесплатно

    Опубликовал: fregat | Дата: 30-12-2018, 16:12 | .torrent скачали: 0

    Мег: Монстр глубины / The Meg (2018) DVD9Производство: США, Китай/Warner Bros. Pictures, Gravity Pictures, Maeday Productions
    Жанр: Ужасы, фантастика, боевик, триллер
    Режиссер: Джон Тёртлтауб
    Продюсер: Кеннет Этчити, Белль Эйвери, Чэнь Цзе

    Актеры
    Джейсон Стэйтем, Ли Бинбин, Рэйн Уилсон, Клифф Кёртис, Уинстон Чао, Шуя Софиа Цай, Руби Роуз, Пейдж Кеннеди, Роберт Тейлор, Оулавюр Дарри Оулафссон

    Описание

    Глубоководный батискаф, осуществляющий наблюдение в рамках международной программы по изучению подводной жизни, был атакован огромным существом, которое все считали давно вымершим. Неисправный аппарат теперь лежит на дне глубочайшей впадины Тихого океана… с оказавшимся в ловушке экипажем. Их время на исходе. Китайский океанограф-новатор, несмотря на протесты его дочери Суинь, зовет спасателя-подводника Джонаса Тейлора, чтобы тот помог спасти команду и океан от невиданной угрозы — доисторической 23-метровой акулы, мегалодона. Никто и подумать не мог, что много лет назад Тейлор уже сталкивался с этим чудовищным созданием.

    Возраст: 16+ (зрителям, достигшим 16 лет)
    Рейтинг MPAA: PG-13 (детям до 13 лет просмотр нежелателен)
    Дата мировой премьеры: 8 августа 2018
    Дата российской премьеры: 9 августа 2018, Каро-Премьер

    Продолжительность: 01: 48: 35
    Качество видео: DVD9 R5
    Перевод: Дублированный (лицензия)
    Субтитры: Русские, английские, эстонские, исландские, латышские, литовские, португальские
    Доп. материалы: Кусок не по зубам: о создании фильма
    Видео: MPEG-2, 720x576@1024x576 (PAL 16: 9), ~5400 Kbps
    Аудио 1: AC3 5.1, 384 Kbps (Английский - оригинал)
    Аудио 2: AC3 5.1, 384 Kbps (Хинди - дублированный)
    Аудио 3: AC3 5.1, 384 Kbps (Русский - дублированный)
    Аудио 4: AC3 5.1, 384 Kbps (Тамильский - дублированный)
    Аудио 5: AC3 5.1, 384 Kbps (Телугу - дублированный)
    Title: The Meg (2018) DVD9 R5
    Size: 6.13 Gb ( 6 427 116, 00 KBytes ) - DVD-9
    Enabled regions: 1, 2, 3, 4, 5, 6, 7, 8
    VTS_01 :
    Play Length: 01: 48: 35+00: 00: 00+00: 11: 40
    Video: PAL 16: 9 (720x576) VBR, Auto Letterboxed
    Audio:
    English, AC3, 3/2 (L, C, R, SL, SR)+LFE ch, 384 kbps, Delay 0 mSec
    Hindi,
    Russian,
    Tamil,
    Telugu,
    English, AC3, 2/0 (L, R) ch, 192 kbps, Delay -74 mSec
    Subtitles:
    English
    Estonian
    Islenska
    Latvian
    Lithuanian
    Portugues
    Russian
    Hindi
    Russian
    Tamil
    Telugu
    VTS_02 :
    Play Length: 00: 00: 13
    Video: PAL 16: 9 (720x576) VBR, Auto Letterboxed
    Audio:
    Not specified (Dolby AC3, 6 ch)
    Subtitles:
    Not specified
    Общее
    Полное имя : V: TorrentsThe Meg (2018) DVD9 R5VIDEO_TSVTS_01_2.VOB
    Формат : MPEG-PS
    Размер файла : 1024 Мбайт
    Продолжительность : 19 м. 8 с.
    Режим общего битрейта : Переменный
    Общий поток : 7478 Кбит/сек
    Видео
    Идентификатор : 224 (0xE0)
    Формат : MPEG Video
    Версия формата : Version 2
    Профиль формата : Main@Main
    Настройки формата : CustomMatrix/BVOP
    Параметр BVOP формата : Да
    Параметр матрицы формата : Выборочная
    Параметр GOP формата : Variable
    Продолжительность : 19 м. 8 с.
    Вид битрейта : Переменный
    Битрейт : 5409 Кбит/сек
    Максимальный битрейт : 9800 Кбит/сек
    Ширина : 720 пикселей
    Высота : 576 пикселей
    Соотношение сторон : 16: 9
    Частота кадров : 25, 000 кадров/сек
    Стандарт вещания : PAL
    Цветовое пространство : YUV
    Субдискретизация насыщенности : 4: 2: 0
    Битовая глубина : 8 бит
    Тип развёртки : Прогрессивная
    Порядок развёртки : Верхнее поле первое
    Метод сжатия : С потерями
    Бит/(Пиксели*Кадры) : 0.522
    Временной код первого кадра : 01: 12: 23: 01
    Оригинал временного кода : Group of pictures t_head
    GOP, открыто/закрыто : Открыто
    Размер потока : 741 Мбайт (72%)
    Аудио #1
    Идентификатор : 189 (0xBD)-128 (0x80)
    Формат : AC-3
    Формат/Информация : Audio Coding 3
    Параметр Endianness формата : Big
    Режим смешивания : DVD-Video
    Продолжительность : 19 м. 8 с.
    Вид битрейта : Постоянный
    Битрейт : 384 Кбит/сек
    Каналы : 6 каналов
    Расположение каналов : Front: L C R, Side: L R, LFE
    Частота : 48, 0 КГц
    Частота кадров : 31, 250 кадров/сек (1536 SPF)
    Битовая глубина : 16 бит
    Метод сжатия : С потерями
    Задержка видео : -192 мс.
    Размер потока : 52, 6 Мбайт (5%)
    ServiceKind/String : Complete Main
    Аудио #2
    Идентификатор : 189 (0xBD)-129 (0x81)
    Формат : AC-3
    Формат/Информация : Audio Coding 3
    Параметр Endianness формата : Big
    Режим смешивания : DVD-Video
    Продолжительность : 19 м. 8 с.
    Вид битрейта : Постоянный
    Битрейт : 384 Кбит/сек
    Каналы : 6 каналов
    Расположение каналов : Front: L C R, Side: L R, LFE
    Частота : 48, 0 КГц
    Частота кадров : 31, 250 кадров/сек (1536 SPF)
    Битовая глубина : 16 бит
    Метод сжатия : С потерями
    Задержка видео : -192 мс.
    Размер потока : 52, 6 Мбайт (5%)
    ServiceKind/String : Complete Main
    Аудио #3
    Идентификатор : 189 (0xBD)-130 (0x82)
    Формат : AC-3
    Формат/Информация : Audio Coding 3
    Параметр Endianness формата : Big
    Режим смешивания : DVD-Video
    Продолжительность : 19 м. 8 с.
    Вид битрейта : Постоянный
    Битрейт : 384 Кбит/сек
    Каналы : 6 каналов
    Расположение каналов : Front: L C R, Side: L R, LFE
    Частота : 48, 0 КГц
    Частота кадров : 31, 250 кадров/сек (1536 SPF)
    Битовая глубина : 16 бит
    Метод сжатия : С потерями
    Задержка видео : -192 мс.
    Размер потока : 52, 6 Мбайт (5%)
    ServiceKind/String : Complete Main
    Аудио #4
    Идентификатор : 189 (0xBD)-131 (0x83)
    Формат : AC-3
    Формат/Информация : Audio Coding 3
    Параметр Endianness формата : Big
    Режим смешивания : DVD-Video
    Продолжительность : 19 м. 8 с.
    Вид битрейта : Постоянный
    Битрейт : 384 Кбит/сек
    Каналы : 6 каналов
    Расположение каналов : Front: L C R, Side: L R, LFE
    Частота : 48, 0 КГц
    Частота кадров : 31, 250 кадров/сек (1536 SPF)
    Битовая глубина : 16 бит
    Метод сжатия : С потерями
    Задержка видео : -192 мс.
    Размер потока : 52, 6 Мбайт (5%)
    ServiceKind/String : Complete Main
    Аудио #5
    Идентификатор : 189 (0xBD)-132 (0x84)
    Формат : AC-3
    Формат/Информация : Audio Coding 3
    Параметр Endianness формата : Big
    Режим смешивания : DVD-Video
    Продолжительность : 19 м. 8 с.
    Вид битрейта : Постоянный
    Битрейт : 384 Кбит/сек
    Каналы : 6 каналов
    Расположение каналов : Front: L C R, Side: L R, LFE
    Частота : 48, 0 КГц
    Частота кадров : 31, 250 кадров/сек (1536 SPF)
    Битовая глубина : 16 бит
    Метод сжатия : С потерями
    Задержка видео : -192 мс.
    Размер потока : 52, 6 Мбайт (5%)
    ServiceKind/String : Complete Main
    Текст #1
    Идентификатор : 189 (0xBD)-32 (0x20)
    Формат : RLE
    Формат/Информация : Run-length encoding
    Режим смешивания : DVD-Video
    Продолжительность : 19 м. 5 с.
    Задержка видео : 2 с. 280 мс.
    Текст #2
    Идентификатор : 189 (0xBD)-33 (0x21)
    Формат : RLE
    Формат/Информация : Run-length encoding
    Режим смешивания : DVD-Video
    Продолжительность : 19 м. 3 с.
    Задержка видео : 2 с. 280 мс.
    Текст #3
    Идентификатор : 189 (0xBD)-34 (0x22)
    Формат : RLE
    Формат/Информация : Run-length encoding
    Режим смешивания : DVD-Video
    Продолжительность : 19 м. 3 с.
    Задержка видео : 2 с. 240 мс.
    Текст #4
    Идентификатор : 189 (0xBD)-35 (0x23)
    Формат : RLE
    Формат/Информация : Run-length encoding
    Режим смешивания : DVD-Video
    Продолжительность : 19 м. 3 с.
    Задержка видео : 2 с. 280 мс.
    Текст #5
    Идентификатор : 189 (0xBD)-36 (0x24)
    Формат : RLE
    Формат/Информация : Run-length encoding
    Режим смешивания : DVD-Video
    Продолжительность : 19 м. 3 с.
    Задержка видео : 2 с. 320 мс.
    Текст #6
    Идентификатор : 189 (0xBD)-37 (0x25)
    Формат : RLE
    Формат/Информация : Run-length encoding
    Режим смешивания : DVD-Video
    Продолжительность : 19 м. 3 с.
    Задержка видео : 2 с. 240 мс.
    Текст #7
    Идентификатор : 189 (0xBD)-38 (0x26)
    Формат : RLE
    Формат/Информация : Run-length encoding
    Режим смешивания : DVD-Video
    Продолжительность : 19 м. 4 с.
    Задержка видео : 2 с. 200 мс.
    Меню


    Онлайн видео Мег: Монстр глубины



    Мег: Монстр глубины/The Meg (2018) DVD9
    Рейтинг →
     (голосов: 1, оценка 5/5, голосовать можно 1 раз )

    Другие торренты по теме:

  • Мег: Монстр глубины / The Meg (2018) CamRip [AD]
  • Мег: Монстр глубины / The Meg (2018) WEBRip [H.264 / 1080p-LQ] [EN / KOR Sub]
  • Мег: Монстр глубины / The Meg (2018) WEBRip [H.264 / 1080p-LQ] [MVO, AD]
  • Мег: Монстр глубины / The Meg (2018) WEBRip [Звук с TS] [AD]
  • Мег: Монстр глубины / The Meg (2018) WEBRip [H.264 / 720p-LQ] [Звук с TS] [AD]
  • Мег: Монстр глубины / The Meg (2018) WEBRip [MVO]
  • Мег: Монстр глубины / The Meg (2018) WEBRip [H.264 / 1080p-LQ] [MVO]
  • Мег: Монстр глубины / The Meg (2018) WEBRip [H.264 / 720p-LQ] [MVO]


    • Комментарии (0):

      Информация

      Информация

        Посетители, находящиеся в группе Гости, не могут оставлять комментарии в данной новости.

        ↓ Меню




        ↓ Опрос

        Вы добавили сайт в закладки?
        Да
        Нет


        Top 10 за месяц (Фильмы)