.
Авторизация | Регистрация
Хочешь лучшие торренты? Добавь свой email!
Добавить

Торрент скачать бесплатно

  • support: webmaster@btracker.club
» » Дом, который построил Джек / The House That Jack Built (2018) WEB-DLRip [H.264 / 720p] [AVO] торрент скачать бесплатно


    Дом, который построил Джек / The House That Jack Built (2018) WEB-DLRip [H.264 / 720p] [AVO] торрент скачать бесплатно

    Опубликовал: fregat | Дата: 30-12-2018, 16:12 | .torrent скачали: 1

    Дом, который построил Джек / The House That Jack Built (2018) WEB-DLRip [H.264 / 720p] [AVO]Производство: Дания, Швеция, Франция, Германия, Zentropa Entertainments, Centre National du Cinéma et de l\'Image, Copenhagen Film Fund
    Жанр: Ужасы, Драма
    Режиссер: Ларс фон Триер

    Актеры
    Мэтт Диллон, Бруно Ганц, Ума Турман, Шиван Фэллон, Софи Гробёль, Райли Кио, Джереми Дэвис, Джек МакКензи, Эдвард Спелирс, Дэвид Бэйли

    Описание

    История серийного убийцы по имени Джек разворачивается в Америке 70-х. За 12 лет блестящей карьеры Джеку встретятся назойливая попутчица, наивная подружка и другие очаровательные в своей глупости жертвы. Пять невероятных, до жути изобретательных и порой до смеха абсурдных убийств, к каждому из которых Джек относится как к настоящему произведению искусства.

    Возраст: 18+ (зрителям, достигшим 18 лет. запрещено для детей)
    Рейтинг MPAA: R (лицам до 17 лет обязательно присутствие взрослого)
    Дата мировой премьеры: 14 мая 2018
    Дата российской премьеры: 6 декабря 2018
    Релиз от: k.e.n MegaPeer
    Продолжительность: 02: 30: 49
    Качество видео: WEB-DLRip 720p
    Перевод: Авторский (одноголосый, закадровый) М.Яроцкий
    Субтитры: русские, английские
    Видео: AVC, 1280x536 (2.35: 1), 24 fps, 3 380 Kbps (0.205 bit/pixel)
    Аудио #1: AC-3, 48.0 KHz, 6 ch, 384 Kbps, CBR (Russian) - авторский М.Яроцкий
    Аудио #2: AC-3, 48.0 KHz, 6 ch, 384 Kbps, CBR (English) - оригинал
    x264 info: frame I: 1198 Avg QP: 16.00 size: 80086 PSNR Mean Y: 48.92 U: 50.43 V: 51.51 Avg: 49.35 Global: 47.80
    x264 info: frame P: 49683 Avg QP: 19.75 size: 31581 PSNR Mean Y: 46.61 U: 47.90 V: 49.59 Avg: 46.99 Global: 45.79
    x264 info: frame B: 166305 Avg QP: 20.66 size: 12965 PSNR Mean Y: 46.36 U: 47.81 V: 49.79 Avg: 46.78 Global: 44.86
    Полное имя : D: ФИЛЬМЫДом, который построил Джек.2018 (М.Диллон, У.Турман).k.e.n MegaPeer.mkv
    Формат : Matroska
    Версия формата : Version 2
    Размер файла : 4, 37 Гбайт
    Продолжительность : 2 ч. 30 м.
    Общий поток : 4148 Кбит/сек
    Дата кодирования : UTC 2018-12-28 11: 35: 48
    Программа кодирования : mkvmerge v5.3.0 (\'I could have danced\') built on Feb 9 2012 10: 38: 07
    Библиотека кодирования : libebml v1.2.3 + libmatroska v1.3.0
    Обложка : Yes
    Attachments : cover (2).jpg
    Видео
    Идентификатор : 1
    Формат : AVC
    Формат/Информация : Advanced Video Codec
    Профиль формата : High@L4.1
    Параметр CABAC формата : Да
    Параметр ReFrames формата : 12 кадров
    Идентификатор кодека : V_MPEG4/ISO/AVC
    Продолжительность : 2 ч. 30 м.
    Битрейт : 3380 Кбит/сек
    Ширина : 1280 пикселей
    Высота : 536 пикселей
    Соотношение сторон : 2, 40: 1
    Режим частоты кадров : Постоянный
    Частота кадров : 24, 000 кадра/сек
    Цветовое пространство : YUV
    Субдискретизация насыщенности : 4: 2: 0
    Битовая глубина : 8 бит
    Тип развёртки : Прогрессивная
    Бит/(Пиксели*Кадры) : 0.205
    Размер потока : 3, 47 Гбайт (79%)
    Библиотека кодирования : x264 core 146 r2538 121396c
    Настройки программы : cabac=1/ref=12/deblock=1: -3: -3/analyse=0x3: 0x133/me=umh/subme=11/psy=1/psy_rd=1.00: 0.00/mixed_ref=1/me_range=32/chroma_me=1/trellis=2/8x8dct=1/cqm=0/deadzone=21, 11/fast_pskip=0/chroma_qp_offset=-2/threads=12/lookahead_threads=3/sliced_threads=0/nr=0/decimate=0/interlaced=0/bluray_compat=0/constrained_intra=0/bframes=12/b_pyramid=2/b_adapt=2/b_bias=0/direct=3/weightb=1/open_gop=0/weightp=2/keyint=240/keyint_min=23/scenecut=40/intra_refresh=0/rc=2pass/mbtree=0/bitrate=3380/ratetol=1.0/qcomp=0.60/qpmin=0/qpmax=69/qpstep=4/cplxblur=20.0/qblur=0.5/ip_ratio=1.40/pb_ratio=1.30/aq=3: 0.70
    Язык : English
    Default : Да
    Forced : Нет
    Аудио #1
    Идентификатор : 2
    Формат : AC-3
    Формат/Информация : Audio Coding 3
    Расширение режима : CM (complete main)
    Параметр Endianness формата : Big
    Идентификатор кодека : A_AC3
    Продолжительность : 2 ч. 30 м.
    Вид битрейта : Постоянный
    Битрейт : 384 Кбит/сек
    Каналы : 6 каналов
    Расположение каналов : Front: L C R, Side: L R, LFE
    Частота : 48, 0 КГц
    Частота кадров : 31, 250 кадров/сек (1536 spf)
    Битовая глубина : 16 бит
    Метод сжатия : С потерями
    Размер потока : 414 Мбайт (9%)
    Заголовок : Авторский М.Яроцкий
    Язык : Russian
    Default : Да
    Forced : Нет
    Аудио #2
    Идентификатор : 3
    Формат : AC-3
    Формат/Информация : Audio Coding 3
    Расширение режима : CM (complete main)
    Параметр Endianness формата : Big
    Идентификатор кодека : A_AC3
    Продолжительность : 2 ч. 30 м.
    Вид битрейта : Постоянный
    Битрейт : 384 Кбит/сек
    Каналы : 6 каналов
    Расположение каналов : Front: L C R, Side: L R, LFE
    Частота : 48, 0 КГц
    Частота кадров : 31, 250 кадров/сек (1536 spf)
    Битовая глубина : 16 бит
    Метод сжатия : С потерями
    Размер потока : 414 Мбайт (9%)
    Заголовок : Оригинал
    Язык : English
    Default : Нет
    Forced : Нет
    Текст #1
    Идентификатор : 4
    Формат : UTF-8
    Идентификатор кодека : S_TEXT/UTF8
    Идентификатор кодека/Информация : UTF-8 Plain Text
    Язык : Russian
    Default : Нет
    Forced : Нет
    Текст #2
    Идентификатор : 5
    Формат : UTF-8
    Идентификатор кодека : S_TEXT/UTF8
    Идентификатор кодека/Информация : UTF-8 Plain Text
    Заголовок : SDH
    Язык : English
    Default : Нет
    Forced : Нет

    Скриншоты для ознакомления



    Все одноименные релизы в Клубе
    Время раздачи: с 14: 00 до 23: 00 (до появления первых 3-5 скачавших)


    Онлайн видео Дом, который построил Джек



    Дом, который построил Джек/The House That Jack Built (2018) WEB-DLRip [H.264/720p] [AVO]
    Рейтинг →
     (голосов: 1, оценка 3/5, голосовать можно 1 раз )

    Другие торренты по теме:

  • Дом, который построил Джек / The House That Jack Built (2018) BDRemux [H.264 / 1080p] [UNRATED]
  • Дом, который построил Свифт (1982) DVDRip [H.264] скачать через торрент бесплатно
  • Роберт Асприн, Линда Эванс | Дом, который построил Джек (2016) [MP3]
  • Чертово Колесо Инженера Ферриса - Дом который построил Jerk (2015) [FLAC|Lossless|tracks + .cue] <Power-Pop, Dance-Punk, Horror-Electro>
  • Дом, который построил Свифт (1982) DVD9
  • Дом, который построил Джек / The House That Jack Built (2018) WEB-DLRip [Звук с TS, AD]
  • Дом, который построил Джек / The House That Jack Built (2018) WEBRip [EN / RU Sub]
  • Дом, который построил Джек / The House That Jack Built (2018) WEB-DLRip [H.264 / 1080p-LQ] [EN / RU, EN SUB]


    • Комментарии (0):

      Информация

      Информация

        Посетители, находящиеся в группе Гости, не могут оставлять комментарии в данной новости.

        ↓ Меню




        ↓ Опрос

        Вы добавили сайт в закладки?
        Да
        Нет


        Top 10 за месяц (Фильмы)