.
Авторизация | Регистрация

Торрент скачать бесплатно

  • support: webmaster@btracker.club
» » Звезда родилась / A Star Is Born (2018) WEB-DLRip [Line, AD] торрент скачать бесплатно


    Звезда родилась / A Star Is Born (2018) WEB-DLRip [Line, AD] торрент скачать бесплатно

    Дата: 27-12-2018, 05:00 | .torrent скачали: 157

    Звезда родилась / A Star Is Born (2018) WEB-DLRip [Line, AD]Производство: США/Warner Bros. Pictures, Live Nation Productions, Metro-Goldwyn-Mayer (MGM)
    Жанр: Мелодрама, Музыкальный
    Режиссер: Брэдли Купер
    Продюсер: Брэдли Купер, Боб Дорманн, Билл Гербер

    Актеры
    Леди Гага, Брэдли Купер, Сэм Эллиотт, Эндрю Дайс Клэй, Рафи Гаврон, Энтони Рамос, Дэйв Шаппелл, Алек Болдуин, Марлон Уильямс, Брэнди Карлил

    Описание

    Кантри-музыкант Джексон Мейн, чья карьера быстро катится под откос, однажды знакомится с никому не известной талантливой певицей Элли. Между героями вспыхивает страстный роман. Джек помогает Элли добиться успеха. Но чем стремительнее набирает обороты музыкальная карьера Элли, тем сложнее ему мириться со своей увядающей славой.

    Возраст: 18+ (зрителям, достигшим 18 лет. запрещено для детей)
    Рейтинг MPAA: R (лицам до 17 лет обязательно присутствие взрослого)
    Дата мировой премьеры: 31 августа 2018
    Дата российской премьеры: 4 октября 2018, Каро-Премьер
    Цифровой релиз: 16 января 2019, Warner Bros.
    Продолжительность: 02: 15: 42
    Качество видео: WEB-DLRip
    Перевод: Дублированный (чистый звук)
    Субтитры: Корейские (вшитые, неотключаемые)
    Реклама: Присутствуют вставки голосовой и текстовой рекламы
    Видео: Xvid, 720x304, ~1719 Kbps
    Аудио: AC3, 2 ch, 384 Kbps

    Общее
    Полное имя : D: CDЗвезда родилась (2018)Звезда родилась (2018) Web-DLRip-Line.avi
    Формат : AVI
    Формат/Информация : Audio Video Interleave
    Профиль формата : OpenDML
    Размер файла : 2, 01 Гбайт
    Продолжительность : 2 ч. 15 м.
    Общий поток : 2116 Кбит/сек
    Программа кодирования : VirtualDubMod 1.5.10.2 (build 2540/release)
    Библиотека кодирования : VirtualDub build 35576/release
    Видео
    Идентификатор : 0
    Формат : MPEG-4 Visual
    Профиль формата : Advanced Simple@L5
    Настройки формата : BVOP2/Custom Matrix
    Параметр BVOP формата : 2
    Параметр QPel формата : Нет
    Параметр GMC формата : Без точки перехода
    Параметр матрицы формата : Выборочная
    Идентификатор кодека : XVID
    Идентификатор кодека/Подсказка : XviD
    Продолжительность : 2 ч. 15 м.
    Битрейт : 1719 Кбит/сек
    Ширина : 720 пикселей
    Высота : 304 пикселя
    Соотношение сторон : 2, 35: 1
    Частота кадров : 23, 976 (24000/1001) кадра/сек
    Цветовое пространство : YUV
    Субдискретизация насыщенности : 4: 2: 0
    Битовая глубина : 8 бит
    Тип развёртки : Прогрессивная
    Метод сжатия : С потерями
    Бит/(Пиксели*Кадры) : 0.328
    Размер потока : 1, 63 Гбайт (81%)
    Библиотека кодирования : XviD 1.2.1 (UTC 2008-12-04)
    Аудио
    Идентификатор : 1
    Формат : AC-3
    Формат/Информация : Audio Coding 3
    Коммерческое название : Dolby Digital
    Идентификатор кодека : 2000
    Продолжительность : 2 ч. 15 м.
    Вид битрейта : Постоянный
    Битрейт : 384 Кбит/сек
    Каналы : 2 канала
    Channel layout : L R
    Частота : 48, 0 КГц
    Частота кадров : 31, 250 кадров/сек (1536 SPF)
    Битовая глубина : 16 бит
    Метод сжатия : С потерями
    Задержка видео : 15 мс.
    Размер потока : 373 Мбайт (18%)
    Выравнивание : Разделение по промежуткам
    Продолжительность промежутка : 42 мс. (1, 00 видеокадр)
    Время предзагрузки промежутка : 500 мс.
    ServiceKind/String : Complete Main


    Онлайн видео Звезда родилась



    Звезда родилась/A Star Is Born (2018) WEB-DLRip [Line, AD]
    Рейтинг →
     (голосов: 1, оценка 3/5, голосовать можно 1 раз )

    Другие торренты по теме:

  • Звезда родилась / A Star Is Born (2018) CamRip [AD]
  • Звезда родилась / A Star Is Born (2018) WEB-DLRip [UKR, EN / Kor Sub]
  • Звезда родилась / A Star Is Born (2018) WEB-DLRip [H.264]
  • Звезда родилась / A Star Is Born (2018) WEB-DL [H.264 / 1080p-LQ]
  • Звезда родилась / A Star Is Born (2018) WEB-DLRip
  • Звезда родилась / A Star Is Born (2018) WEB-DL [1080p] ATV
  • Звезда родилась / A Star Is Born (2018) WEB-DL [720p] ATV
  • Звезда родилась / A Star Is Born (2018) BDRip [H.264 / 720p]


    • Комментарии (0):

      Информация

      Информация

        Посетители, находящиеся в группе Гости, не могут оставлять комментарии в данной новости.

        ↓ Меню




        ↓ Опрос

        Вы добавили сайт в закладки?
        Да
        Нет


        Top 10 за месяц (Фильмы)