.
Авторизация | Регистрация
Хочешь лучшие торренты? Добавь свой email!
Добавить

Торрент скачать бесплатно

  • support: webmaster@btracker.club
» » Призвание (2005) DVDRip (серии 1-16 из 16) торрент скачать бесплатно


    Призвание (2005) DVDRip (серии 1-16 из 16) торрент скачать бесплатно

    Опубликовал: fregat | Дата: 28-11-2018, 05:00 | .torrent скачали: 13

    Призвание (2005) DVDRip (серии 1-16 из 16)Производство: Беларусь
    Жанр: криминал, детектив
    Режиссер: Виктор Сергеев

    Актеры
    Андрей Мерзликин, Алексей Панин, Наталья Гудкова, Борис Соколов, Анатолий Гущин, Кеша Сичкарь, Алексей Бычков, Владимир Глотов, Олег Корчиков, Виктор Манаев и др.

    Описание

    История фильма основана на реальных исторических событиях. Самые известные преступления с середины восьмидесятых годов прошлого столетия и до наших дней были использованы в качестве основы для детективных сюжетов картины. Главный герой — Олег Крайнов, отслужив в армии, приезжает в Москву поступать во ВГИК на актёрский факультет. Волею случая он приходит работать в милицию и тут находит своё призвание. К работе он подходит творчески, за что и получает прозвище Артист. В интересах расследования Олег виртуозно перевоплощается в бизнесмена, бандита, лоха. Стараясь идти в ногу с прогрессом, он внедряет в работу милиции новые технологии. Крайнов никогда не изменит себе и своим принципам, чем заслуживает репутацию порядочного человека и честного мента…

    Возраст: 12+ (зрителям, достигшим 12 лет)
    Продолжительность: ~00: 45: 00 серия
    Качество видео: DVDRip
    Язык озвучки: русский
    Видео: Xvid, 720x432 (16: 9), ~1300 Kbps
    Аудио: AC3, 6 ch, 448 Kbps

    Общее
    Полное имя : G: Призвание (2005)Серия 01.avi
    Формат : AVI
    Формат/Информация : Audio Video Interleave
    Размер файла : 552 Мбайт
    Продолжительность : 44 м. 1 с.
    Общий поток : 1753 Кбит/сек
    IsTruncated : Yes
    Видео
    Идентификатор : 0
    Формат : MPEG-4 Visual
    Профиль формата : Simple@L3
    Параметр BVOP формата : Нет
    Параметр QPel формата : Нет
    Параметр GMC формата : Без точки перехода
    Параметр матрицы формата : Default (H.263)
    Идентификатор кодека : XVID
    Идентификатор кодека/Подсказка : XviD
    Продолжительность : 44 м. 1 с.
    Продолжительность оригинала : 44 м. 1 с.
    Битрейт : 1294 Кбит/сек
    Ширина : 720 пикселей
    Высота : 432 пикселя
    Соотношение сторон : 16: 9
    Частота кадров : 25, 000 кадров/сек
    Цветовое пространство : YUV
    Субдискретизация насыщенности : 4: 2: 0
    Битовая глубина : 8 бит
    Тип развёртки : Прогрессивная
    Метод сжатия : С потерями
    Бит/(Пиксели*Кадры) : 0.166
    Размер потока : 407 Мбайт (74%)
    Библиотека кодирования : XviD 1.1.2 (UTC 2006-11-01)
    Аудио
    Идентификатор : 1
    Формат : AC-3
    Формат/Информация : Audio Coding 3
    Коммерческое название : Dolby Digital
    Идентификатор кодека : 2000
    Продолжительность : 44 м. 1 с.
    Продолжительность оригинала : 44 м. 1 с.
    Вид битрейта : Постоянный
    Битрейт : 448 Кбит/сек
    Каналы : 6 каналов
    Channel layout : L R C LFE Ls Rs
    Частота : 48, 0 КГц
    Частота кадров : 31, 250 кадров/сек (1536 SPF)
    Битовая глубина : 16 бит
    Метод сжатия : С потерями
    Размер потока : 141 Мбайт (26%)
    Выравнивание : Соединение по промежуткам
    Продолжительность промежутка : 32 мс. (0, 80 видеокадр)
    Время предзагрузки промежутка : 512 мс.
    ServiceKind/String : Complete Main


    Онлайн видео Призвание (2005) DVDRip (серии 1



    Призвание (2005) DVDRip (серии 1-16 из 16)
    Рейтинг →
     (голосов: 1, оценка 4/5, голосовать можно 1 раз )

    Другие торренты по теме:

  • Призвание / The Calling (2014) WEB-DLRip
  • Призвание / The Calling (2014) WEB-DLRip
  • Призвание / The Calling (2013) WEB-DL [720p] ATV скачать через торрент бесплатно
  • Александр Копировский (науч. ред.) | Свобода - дар Духа и призвание в церкви и обществе Материалы Международной научно-богословской конференции (2009) [PDF] скачать через торрент бесплатно
  • Призвание / The Calling (2014) HDTV [1080i] скачать через торрент бесплатно
  • Генри Марш | Призвание. О выборе, долге и нейрохирургии (2017) [FB2, EPUB]
  • Архимандрит Амвросий (Юрасов) | Призвание [PDF, DJVU]
  • Татьяна Коростышевская | Призвание – миньон! (2018) [FB2]


    • Комментарии (0):

      Информация

      Информация

        Посетители, находящиеся в группе Гости, не могут оставлять комментарии в данной новости.

        ↓ Меню




        ↓ Опрос

        Вы добавили сайт в закладки?
        Да
        Нет


        Top 10 за месяц (Фильмы)