.
Авторизация | Регистрация
Хочешь лучшие торренты? Добавь свой email!
Добавить

Торрент скачать бесплатно

  • support: webmaster@btracker.club
» » Леденящие душу приключения Сабрины / Chilling Adventures of Sabrina (2018) WEBRip [H.264 / 720p-LQ] (сезон 1, серии 1-10 из 10) BaibaKo торрент скачать бесплатно


    Леденящие душу приключения Сабрины / Chilling Adventures of Sabrina (2018) WEBRip [H.264 / 720p-LQ] (сезон 1, серии 1-10 из 10) BaibaKo торрент скачать бесплатно

    Опубликовал: fregat | Дата: 2-11-2018, 05:00 | .torrent скачали: 0

    Леденящие душу приключения Сабрины / Chilling Adventures of Sabrina (2018) WEBRip [H.264 / 720p-LQ] (сезон 1, серии 1-10 из 10) BaibaKoПроизводство: США | Warner Bros. Television
    Жанр: ужасы, фэнтези, триллер, драма, детектив
    Режиссер: Роб Шейденгланц, Мэгги Кили, Ли Толанд Кригер

    Актеры
    Кирнан Шипка, Ричард Койл, Люси Дэвис, Мишель Гомес, Росс Линч, Миранда Отто, Бронсон Пинчот, Райли Уотсон, Кристофер Розамунд, Дженна Берман и др.

    Описание

    Молодая ведьмочка Сабрина в процессе взросления. Она пытается разобраться в себе и найти свой путь. У девушки двойная суть: наполовину колдунья, наполовину обычный человек. Это немного мешает ей понять себя. Перед полукровкой выбор: жить жизнью обычного человека или войти навсегда в мир магии и волшебства. Метания между крайностями характера не способствуют внутренней гармонии взрослеющей девочки. Она поступает на курсы ведьм. В то же время, ей нравится обычная жизнь, которой живут смертные одноклассницы. Пока девушка-маг в раздумьях своего пути, Силы Зла не дремлют. Они приготовили ведьмочке суровые испытания...

    Дата мировой премьеры: 5 октября 2018
    Продолжительность: ~01: 00: 00 серия
    Качество видео: WEBRip
    Перевод: Многоголосый закадровый, профессиональный (BaibaKo)
    Субтитры: русские, английские
    Видео: AVC/H.264, 1280x580, ~1857 kbps
    Аудио 1: AC3, 6 ch, 384 kbps - русский, многоголосый закадровый
    Аудио 2: AC3, 6 ch, 384 kbps - английский

    General
    Unique ID : 90884041415862767438546931013954558122 (0x445FA132E74419BFEFA3A19EDFDFD8AA)
    Complete name : D: Chilling_Adventures_of_Sabrina_s01_720p_WEBRip_BaibaKoChilling_Adventures_of_Sabrina_s01_720p_WEBRip_BaibaKo_01.mkv
    Format : Matroska
    Format version : Version 4
    File size : 1.13 GiB
    Duration : 1 h 1 min
    Overall bit rate : 2 626 kb/s
    Encoded date : UTC 2018-10-29 18: 59: 50
    Writing application : mkvmerge v28.2.0 ('The Awakening') 64-bit
    Writing library : libebml v1.3.6 + libmatroska v1.4.9
    Video
    ID : 1
    Format : AVC
    Format/Info : Advanced Video Codec
    Format profile : High@L4.1
    Format settings : CABAC/5 Ref Frames
    Format settings, CABAC : Yes
    Format settings, ReFrames : 5 frames
    Codec ID : V_MPEG4/ISO/AVC
    Duration : 1 h 1 min
    Bit rate : 1 857 kb/s
    Width : 1 280 pixels
    Height : 580 pixels
    Display aspect ratio : 2.2: 1
    Frame rate mode : Constant
    Frame rate : 23.976 (24000/1001) FPS
    Color space : YUV
    Chroma subsampling : 4: 2: 0
    Bit depth : 8 bits
    Scan type : Progressive
    Bits/(Pixel*Frame) : 0.104
    Stream size : 820 MiB (71%)
    Writing library : x264 core 157 r2935 545de2f
    Encoding settings : cabac=1/ref=5/deblock=1: 0: 0/analyse=0x3: 0x113/me=umh/subme=8/psy=1/psy_rd=1.00: 0.00/mixed_ref=1/me_range=16/chroma_me=1/trellis=2/8x8dct=1/cqm=0/deadzone=21, 11/fast_pskip=1/chroma_qp_offset=-2/threads=18/lookahead_threads=3/sliced_threads=0/nr=0/decimate=1/interlaced=0/bluray_compat=0/constrained_intra=0/bframes=3/b_pyramid=2/b_adapt=2/b_bias=0/direct=3/weightb=1/open_gop=0/weightp=2/keyint=240/keyint_min=23/scenecut=40/intra_refresh=0/rc_lookahead=50/rc=crf/mbtree=1/crf=18.0/qcomp=0.60/qpmin=0/qpmax=69/qpstep=4/vbv_maxrate=62500/vbv_bufsize=78125/crf_max=0.0/nal_hrd=none/filler=0/ip_ratio=1.40/aq=1: 1.00
    Default : Yes
    Forced : No
    Color range : Limited
    Matrix coefficients : BT.709
    Audio #1
    ID : 2
    Format : AC-3
    Format/Info : Audio Coding 3
    Commercial name : Dolby Digital
    Codec ID : A_AC3
    Duration : 1 h 1 min
    Bit rate mode : Constant
    Bit rate : 384 kb/s
    Channel(s) : 6 channels
    Channel layout : L R C LFE Ls Rs
    Sampling rate : 48.0 kHz
    Frame rate : 31.250 FPS (1536 SPF)
    Bit depth : 16 bits
    Compression mode : Lossy
    Stream size : 170 MiB (15%)
    Language : Russian
    Service kind : Complete Main
    Default : Yes
    Forced : No
    Audio #2
    ID : 3
    Format : AC-3
    Format/Info : Audio Coding 3
    Commercial name : Dolby Digital
    Codec ID : A_AC3
    Duration : 1 h 1 min
    Bit rate mode : Constant
    Bit rate : 384 kb/s
    Channel(s) : 6 channels
    Channel layout : L R C LFE Ls Rs
    Sampling rate : 48.0 kHz
    Frame rate : 31.250 FPS (1536 SPF)
    Bit depth : 16 bits
    Compression mode : Lossy
    Stream size : 170 MiB (15%)
    Language : English
    Service kind : Complete Main
    Default : No
    Forced : No
    Text #1
    ID : 4
    Format : UTF-8
    Codec ID : S_TEXT/UTF8
    Codec ID/Info : UTF-8 Plain Text
    Duration : 58 min 17 s
    Bit rate : 97 b/s
    Count of elements : 777
    Stream size : 41.5 KiB (0%)
    Language : Russian
    Default : No
    Forced : No
    Text #2
    ID : 5
    Format : UTF-8
    Codec ID : S_TEXT/UTF8
    Codec ID/Info : UTF-8 Plain Text
    Duration : 1 h 0 min
    Bit rate : 72 b/s
    Count of elements : 916
    Stream size : 32.4 KiB (0%)
    Title : SDH
    Language : English
    Default : Yes
    Forced : No

    Скриншоты для ознакомления



    Все одноименные релизы в Клубе
    Время раздачи: 24/7 (до появления первых 3-5 скачавших)


    Онлайн видео Леденящие душу приключения Сабрины



    Леденящие душу приключения Сабрины/Chilling Adventures of Sabrina (2018) WEBRip [H.264/720p-LQ] (сезон 1, серии 1-10 из 10) BaibaKo
    Рейтинг →
     (голосов: 1, оценка 5/5, голосовать можно 1 раз )

    Другие торренты по теме:

  • Леденящие душу приключения Сабрины / The Chilling Adventures of Sabrina (2018) WEBRip [H.264 / 1080p-LQ] (сезон 1, серии 1-3 из 10) OMSKBIRD (обновляемая) [AD]


    • Комментарии (0):

      Информация

      Информация

        Посетители, находящиеся в группе Гости, не могут оставлять комментарии в данной новости.

        ↓ Меню




        ↓ Опрос

        Вы добавили сайт в закладки?
        Да
        Нет


        Top 10 за месяц (Фильмы)