.
Авторизация | Регистрация
Хочешь лучшие торренты? Добавь свой email!
Добавить

Торрент скачать бесплатно

  • support: webmaster@btracker.club
» » Обычная женщина (2018) WEB-DL [H.264 / 1080p-LQ] (серии 1-3 из 9) (обновляемая) торрент скачать бесплатно


    Обычная женщина (2018) WEB-DL [H.264 / 1080p-LQ] (серии 1-3 из 9) (обновляемая) торрент скачать бесплатно

    Опубликовал: fregat | Дата: 2-11-2018, 05:00 | .torrent скачали: 0

    Обычная женщина (2018) WEB-DL [H.264 / 1080p-LQ] (серии 1-3 из 9) (обновляемая)Производство: Россия
    Жанр: драма, криминал
    Режиссер: Борис Хлебников

    Актеры
    Анна Михалкова, Евгений Гришковец, Аглая Тарасова, Александра Бортич, Татьяна Догилева, Елизавета Кононова, Мария Андреева, Александр Сударев, Стася Милославская, Игорь Сигаев и др.

    Описание

    У 39-летней Марины обычный маленький бизнес — цветочный магазинчик, обычная семья — муж работает хирургом, дочери учатся: младшая — в частной школе, старшая — в институте, и вполне обычные заботы. Окружающим её жизнь кажется счастливой, но за этим благополучным фасадом скрываются невероятные семейные тайны. Это история самой обычной женщины, живущей очень необычной жизнью.

    Возраст: 16+ (зрителям, достигшим 16 лет)
    Дата российской премьеры: 29 октября 2018 (ТВ-3)
    Продолжительность: ~00: 50: 00 серия
    Качество видео: WEB-DL
    Видео: AVC/H.264, 1920x1080 (16: 9), ~5000 Kbps
    Аудио: AC3, 2 ch, 192 Kbps

    Общее
    Уникальный идентификатор : 238858461760991167915453615948654658421 (0xB3B27765D4E29C9A987A616D0FCF4375)
    Полное имя : G: Обычная женщина (2018)Серия 1.mkv
    Формат : Matroska
    Версия формата : Version 4
    Размер файла : 1, 52 Гбайт
    Продолжительность : 42 м. 6 с.
    Режим общего битрейта : Постоянный
    Общий поток : 5166 Кбит/сек
    Название фильма : Obychnaya.zhenschina.e01.2018.WEB-DL.(1080p).Getty
    Дата кодирования : UTC 2018-10-29 15: 38: 43
    Программа кодирования : mkvmerge v7.8.0 ('River Man') 32bit built on Mar 27 2015 16: 18: 02
    Библиотека кодирования : libebml v1.3.1 + libmatroska v1.4.2
    Видео
    Идентификатор : 1
    Формат : AVC
    Формат/Информация : Advanced Video Codec
    Профиль формата : Baseline@L4
    Настройки формата : 4 Ref Frames
    Параметр CABAC формата : Нет
    Параметр RefFrames формата : 4 кадра
    Идентификатор кодека : V_MPEG4/ISO/AVC
    Продолжительность : 42 м. 6 с.
    Вид битрейта : Постоянный
    Битрейт : 5000 Кбит/сек
    Ширина : 1920 пикселей
    Высота : 1080 пикселей
    Соотношение сторон : 16: 9
    Режим частоты кадров : Постоянный
    Частота кадров : 25, 000 кадров/сек
    Стандарт вещания : PAL
    Цветовое пространство : YUV
    Субдискретизация насыщенности : 4: 2: 0
    Битовая глубина : 8 бит
    Тип развёртки : Прогрессивная
    Бит/(Пиксели*Кадры) : 0.096
    Размер потока : 1, 46 Гбайт (96%)
    Default : Да
    Forced : Нет
    Цветовой диапазон : Limited
    Основные цвета : BT.709
    Характеристики трансфера : BT.709
    Коэффициенты матрицы : BT.709
    Аудио
    Идентификатор : 2
    Формат : AC-3
    Формат/Информация : Audio Coding 3
    Коммерческое название : Dolby Digital
    Идентификатор кодека : A_AC3
    Продолжительность : 42 м. 6 с.
    Вид битрейта : Постоянный
    Битрейт : 192 Кбит/сек
    Каналы : 2 канала
    Channel layout : L R
    Частота : 48, 0 КГц
    Частота кадров : 31, 250 кадров/сек (1536 SPF)
    Битовая глубина : 16 бит
    Метод сжатия : С потерями
    Размер потока : 57, 8 Мбайт (4%)
    ServiceKind/String : Complete Main
    Default : Да
    Forced : Нет


    Онлайн видео Обычная женщина (2018) WEB-DL [H.264



    Обычная женщина (2018) WEB-DL [H.264/1080p-LQ] (серии 1-3 из 9) (обновляемая)
    Рейтинг →
     (голосов: 1, оценка 5/5, голосовать можно 1 раз )

    Другие торренты по теме:

  • Обычная женщина (2018) WEB-DLRip (серии 1 из 9) (обновляемая)
  • Обычная женщина (2018) WEB-DL [H.264 / 720p-LQ] (серии 1-2 из 9) (обновляемая)
  • Обычная женщина (2018) WEB-DLRip [H.264] (серии 1-9 из 9)


    • Комментарии (0):

      Информация

      Информация

        Посетители, находящиеся в группе Гости, не могут оставлять комментарии в данной новости.

        ↓ Меню




        ↓ Опрос

        Вы добавили сайт в закладки?
        Да
        Нет


        Top 10 за месяц (Фильмы)