.
Авторизация | Регистрация
Хочешь лучшие торренты? Добавь свой email!
Добавить

Торрент скачать бесплатно

  • support: webmaster@btracker.club
» » Густлофф / Die Gustloff (2008) DVDRip [H.264] торрент скачать бесплатно


    Густлофф / Die Gustloff (2008) DVDRip [H.264] торрент скачать бесплатно

    Опубликовал: fregat | Дата: 2-11-2018, 05:00 | .torrent скачали: 0

    Густлофф / Die Gustloff (2008) DVDRip [H.264]Производство: Германия, Ufa Film-und Fernsehproduktion, Zweites Deutsches Fernsehen (ZDF)
    Жанр: Драма, Военный, История
    Режиссер: Йозеф Вильсмайер

    Актеры
    Кайя Вейсингер, Валери Нихаус, Хайнер Лаутербах, Дана Ваврова, Михаэль Мендль, Карл Маркович, Фрэнсис Фултон-Смит, Николас Солар Лозье, Детлев Бук и другие.

    Описание

    Январским вечером 1945 года три торпеды, выпущенные советской подлодкой, настигли немецкий пассажирский лайнер Вильгельм Густлофф. На борту судна находилось более 10000 человек, в большинстве беженцы, которые эвакуировались из Готенхафена, куда вскоре должна была войти Красная армия. Капитан лайнера попадает в тяжёлую ситуацию…

    Релиз группа:
    Продолжительность: 2 x ~ 01: 33: 42
    Качество видео: DVDRip
    Перевод: Многоголосый закадровый
    Видео: AVC/H.264, 1024x576, ~1910 Kbps
    Аудио: AC3, 2 ch, 192 Kbps

    General
    Unique ID : 175053801909514325557072734132653937804 (0x83B222CA30006CEC8D1E54BB0B96548C)
    Complete name : ..Die.Gustloff.2008.x264.DVDRip.(AVC).port.nadezhdy.mkv
    Format : Matroska
    Format version : Version 1
    File size : 1.40 GiB
    Duration : 1 h 33 min
    Overall bit rate : 2 134 kb/s
    Encoded date : UTC 2012-06-11 19: 34: 24
    Writing application : mkvmerge v2.4.0 ('Fumbling Towards Ecstasy') built on Oct 11 2008 20: 13: 15
    Writing library : libebml v0.7.7 + libmatroska v0.8.1
    Video
    ID : 1
    Format : AVC
    Format/Info : Advanced Video Codec
    Format profile : High@L3
    Format settings : 1 Ref Frames
    Format settings, CABAC : No
    Format settings, RefFrames : 1 frame
    Codec ID : V_MPEG4/ISO/AVC
    Duration : 1 h 33 min
    Bit rate : 1 911 kb/s
    Width : 1 024 pixels
    Height : 576 pixels
    Display aspect ratio : 16: 9
    Original display aspect ratio : 16: 9
    Frame rate mode : Constant
    Frame rate : 23.976 (23976/1000) FPS
    Color space : YUV
    Chroma subsampling : 4: 2: 0
    Bit depth : 8 bits
    Scan type : Progressive
    Bits/(Pixel*Frame) : 0.135
    Stream size : 1.25 GiB (89%)
    Writing library : x264 core 80 r1378+57 6f6b50a
    Encoding settings : cabac=0/ref=1/deblock=1: 0: 0/analyse=0x3: 0x113/me=hex/subme=7/psy=1/psy_rd=1.0: 0.0/mixed_ref=0/me_range=16/chroma_me=1/trellis=0/8x8dct=1/cqm=0/deadzone=21, 11/fast_pskip=1/chroma_qp_offset=-2/threads=3/sliced_threads=0/nr=0/decimate=1/mbaff=0/constrained_intra=0/bframes=0/wpredp=2/keyint=250/keyint_min=25/scenecut=40/rc_lookahead=40/rc=abr/mbtree=1/bitrate=1911/ratetol=1.0/qcomp=0.60/qpmin=10/qpmax=51/qpstep=4/ip_ratio=1.40/aq=1: 1.00
    Default : Yes
    Forced : No
    Audio
    ID : 2
    Format : AC-3
    Format/Info : Audio Coding 3
    Commercial name : Dolby Digital
    Codec ID : A_AC3
    Duration : 1 h 33 min
    Bit rate mode : Constant
    Bit rate : 192 kb/s
    Channel(s) : 2 channels
    Channel layout : L R
    Sampling rate : 48.0 kHz
    Frame rate : 31.250 FPS (1536 SPF)
    Bit depth : 16 bits
    Compression mode : Lossy
    Stream size : 129 MiB (9%)
    Service kind : Complete Main
    Default : Yes
    Forced : No
    ##########
    General
    Unique ID : 194474967449208104824693236319474676143 (0x924E842DD64214008C90BFC92A8FF1AF)
    Complete name : .Die.Gustloff.2008.x264.DVDRip.(AVC).begstvo.cherez.baltijskoe.more.mkv
    Format : Matroska
    Format version : Version 1
    File size : 1.36 GiB
    Duration : 1 h 33 min
    Overall bit rate : 2 081 kb/s
    Encoded date : UTC 2012-06-11 19: 36: 19
    Writing application : mkvmerge v2.4.0 ('Fumbling Towards Ecstasy') built on Oct 11 2008 20: 13: 15
    Writing library : libebml v0.7.7 + libmatroska v0.8.1
    Video
    ID : 1
    Format : AVC
    Format/Info : Advanced Video Codec
    Format profile : High@L3
    Format settings : 1 Ref Frames
    Format settings, CABAC : No
    Format settings, RefFrames : 1 frame
    Codec ID : V_MPEG4/ISO/AVC
    Duration : 1 h 33 min
    Bit rate : 1 917 kb/s
    Width : 1 024 pixels
    Height : 576 pixels
    Display aspect ratio : 16: 9
    Original display aspect ratio : 16: 9
    Frame rate mode : Constant
    Frame rate : 23.976 (23976/1000) FPS
    Color space : YUV
    Chroma subsampling : 4: 2: 0
    Bit depth : 8 bits
    Scan type : Progressive
    Bits/(Pixel*Frame) : 0.136
    Stream size : 1.21 GiB (89%)
    Writing library : x264 core 80 r1378+57 6f6b50a
    Encoding settings : cabac=0/ref=1/deblock=1: 0: 0/analyse=0x3: 0x113/me=hex/subme=7/psy=1/psy_rd=1.0: 0.0/mixed_ref=0/me_range=16/chroma_me=1/trellis=0/8x8dct=1/cqm=0/deadzone=21, 11/fast_pskip=1/chroma_qp_offset=-2/threads=3/sliced_threads=0/nr=0/decimate=1/mbaff=0/constrained_intra=0/bframes=0/wpredp=2/keyint=250/keyint_min=25/scenecut=40/rc_lookahead=40/rc=abr/mbtree=1/bitrate=1917/ratetol=1.0/qcomp=0.60/qpmin=10/qpmax=51/qpstep=4/ip_ratio=1.40/aq=1: 1.00
    Default : Yes
    Forced : No
    Audio
    ID : 2
    Format : AC-3
    Format/Info : Audio Coding 3
    Commercial name : Dolby Digital
    Codec ID : A_AC3
    Duration : 1 h 33 min
    Bit rate mode : Constant
    Bit rate : 192 kb/s
    Channel(s) : 2 channels
    Channel layout : L R
    Sampling rate : 48.0 kHz
    Frame rate : 31.250 FPS (1536 SPF)
    Bit depth : 16 bits
    Compression mode : Lossy
    Stream size : 129 MiB (9%)
    Service kind : Complete Main
    Default : Yes
    Forced : No

    Скриншоты для ознакомления




    Все одноименные релизы в Клубе
    Время раздачи: 24/7


    Онлайн видео Густлофф



    Густлофф/Die Gustloff (2008) DVDRip [H.264]
    Рейтинг →
     (голосов: 1, оценка 5/5, голосовать можно 1 раз )

    Другие торренты по теме:

  • Густлофф / Die Gustloff (2008) DVDRip [H.265]


    • Комментарии (0):

      Информация

      Информация

        Посетители, находящиеся в группе Гости, не могут оставлять комментарии в данной новости.

        ↓ Меню




        ↓ Опрос

        Вы добавили сайт в закладки?
        Да
        Нет


        Top 10 за месяц (Фильмы)