.
Авторизация | Регистрация
Хочешь лучшие торренты? Добавь свой email!
Добавить

Торрент скачать бесплатно

  • support: webmaster@btracker.club
» » Иностранец 2: Черный рассвет / Black Dawn (2005) WEBRip [H.264 / 1080p-LQ] торрент скачать бесплатно


    Иностранец 2: Черный рассвет / Black Dawn (2005) WEBRip [H.264 / 1080p-LQ] торрент скачать бесплатно

    Опубликовал: fregat | Дата: 2-11-2018, 05:00 | .torrent скачали: 0

    Иностранец 2: Черный рассвет / Black Dawn (2005) WEBRip [H.264 / 1080p-LQ]Производство: США/Sony Pictures Home Entertainment, Andrew Stevens Entertainment, Steamroller Productions
    Жанр: Боевик
    Режиссер: Александр Грушинский
    Продюсер: Камал Абукхейтер, Стивен Сигал, Эндрю Стивенс

    Актеры
    Стивен Сигал, Тамара Дейвис, Джон Пайпер-Фергюсон, Джулиан Стоун, Николас Давидофф, Роман Варшавский, Уоррен Дероса, Анджела Готс, Дон Франклин

    Описание

    Террористы грозят стереть с лица земли город Лос-Анджелес. На кону — жизни тысяч людей. Неожиданно выясняется, что преступникам помогает бывший агент ЦРУ, который считался погибшим. На чьей же он стороне? От этого зависит исход смертельно опасного противостояния между террористами и секретными службами…

    Возраст: 16+ (зрителям, достигшим 16 лет)
    Рейтинг MPAA: R (лицам до 17 лет обязательно присутствие взрослого)
    Релиз от: R.G. Goldenshara
    Продолжительность: 01: 35: 58
    Качество видео: WEBRip
    Перевод: Многоголосый закадровый (Видеосервис)
    Субтитры: Английские
    Видео: AVC/H.264, 1920x1080 (16: 9), ~6072 kbps, 23.976 fps
    Аудио: AC3, 6 ch, 48.0 KHz, 448 kbps

    General
    Unique ID : 223202480849843998246679634182941238551 (0xA7EB3BF173D96338B6BF263F9444E517)
    Complete name : E: Мои рипыИностранец 2.Чёрный рассвет.2005.WEBRip.1080p.MVO.mkv
    Format : Matroska
    Format version : Version 4
    File size : 4.37 GiB
    Duration : 1 h 35 min
    Overall bit rate : 6 519 kb/s
    Encoded date : UTC 2018-11-01 15: 46: 46
    Writing application : mkvmerge v6.8.0 ('Theme for Great Cities') 32bit built on Mar 2 2014 21: 27: 07
    Writing library : libebml v1.3.0 + libmatroska v1.4.1
    Video
    ID : 1
    Format : AVC
    Format/Info : Advanced Video Codec
    Format profile : High@L4.1
    Format settings : CABAC/4 Ref Frames
    Format settings, CABAC : Yes
    Format settings, ReFrames : 4 frames
    Codec ID : V_MPEG4/ISO/AVC
    Duration : 1 h 35 min
    Bit rate : 6 072 kb/s
    Width : 1 920 pixels
    Height : 1 080 pixels
    Display aspect ratio : 16: 9
    Frame rate mode : Constant
    Frame rate : 23.976 (23976/1000) FPS
    Color space : YUV
    Chroma subsampling : 4: 2: 0
    Bit depth : 8 bits
    Scan type : Progressive
    Bits/(Pixel*Frame) : 0.122
    Stream size : 3.98 GiB (91%)
    Writing library : x264 core 130 r2273 b3065e6
    Encoding settings : cabac=1/ref=4/deblock=1: -3: -3/analyse=0x3: 0x113/me=umh/subme=11/psy=1/psy_rd=1.00: 0.15/mixed_ref=1/me_range=48/chroma_me=1/trellis=2/8x8dct=1/cqm=0/deadzone=21, 11/fast_pskip=0/chroma_qp_offset=-4/threads=6/lookahead_threads=1/sliced_threads=0/nr=0/decimate=0/interlaced=0/bluray_compat=0/constrained_intra=0/bframes=8/b_pyramid=2/b_adapt=2/b_bias=0/direct=2/weightb=1/open_gop=0/weightp=2/keyint=250/keyint_min=23/scenecut=40/intra_refresh=0/rc=2pass/mbtree=0/bitrate=6072/ratetol=1.0/qcomp=0.60/qpmin=0/qpmax=69/qpstep=4/cplxblur=20.0/qblur=0.5/ip_ratio=1.40/pb_ratio=1.30/aq=2: 1.00
    Language : English
    Default : Yes
    Forced : No
    Color range : Limited
    Color primaries : Generic film
    Matrix coefficients : YCgCo
    Audio
    ID : 2
    Format : AC-3
    Format/Info : Audio Coding 3
    Commercial name : Dolby Digital
    Codec ID : A_AC3
    Duration : 1 h 35 min
    Bit rate mode : Constant
    Bit rate : 448 kb/s
    Channel(s) : 6 channels
    Channel layout : L R C LFE Ls Rs
    Sampling rate : 48.0 kHz
    Frame rate : 31.250 FPS (1536 SPF)
    Bit depth : 16 bits
    Compression mode : Lossy
    Stream size : 308 MiB (7%)
    Title : MVO (Видеосервис)
    Language : Russian
    Service kind : Complete Main
    Default : Yes
    Forced : No
    Text
    ID : 3
    Format : UTF-8
    Codec ID : S_TEXT/UTF8
    Codec ID/Info : UTF-8 Plain Text
    Language : English
    Default : No
    Forced : No

    Скриншоты для ознакомления



    Все одноименные релизы в Клубе
    Время раздачи: 24/7 (круглосуточно)


    Онлайн видео Иностранец 2: Черный рассвет



    Иностранец 2: Черный рассвет/Black Dawn (2005) WEBRip [H.264/1080p-LQ]
    Рейтинг →
     (голосов: 1, оценка 3/5, голосовать можно 1 раз )

    Другие торренты по теме:

  • Самуил Маршак - Петрушка-иностранец (1977) SATRip (Театр кукол им. C. Образцова)
  • Иностранец / The Foreigner (2017) WEBRip [MVO] [AD]
  • Иностранец / The Foreigner (2017) WEBRip [H.264 / 1080p-LQ] [EN / EN, CH Sub]
  • Иностранец / The Foreigner (2017) WEB-DLRip [H.264 / 1080-LQ] [MVO] [AD]
  • Иностранец / The Foreigner (2017) WEB-DLRip [H.264 / 1080-LQ] [Line] [AD]
  • Иностранец / The Foreigner (2017) WEB-DLRip [Line] [AD]
  • Иностранец / The Foreigner (2017) WEB-DLRip [H.264]
  • Иностранец / The Foreigner (2017) WEB-DL [H.264 / 720p-LQ]


    • Комментарии (0):

      Информация

      Информация

        Посетители, находящиеся в группе Гости, не могут оставлять комментарии в данной новости.

        ↓ Меню




        ↓ Опрос

        Вы добавили сайт в закладки?
        Да
        Нет


        Top 10 за месяц (Фильмы)