.
Авторизация | Регистрация
Хочешь лучшие торренты? Добавь свой email!
Добавить

Торрент скачать бесплатно

  • support: webmaster@btracker.club
» » Весь Городок (2004) DVDRip [H.264] [Коллекционное издание] торрент скачать бесплатно


    Весь Городок (2004) DVDRip [H.264] [Коллекционное издание] торрент скачать бесплатно

    Опубликовал: fregat | Дата: 2-11-2018, 05:00 | .torrent скачали: 0

    Весь Городок (2004) DVDRip [H.264] [Коллекционное издание]Жанр: Юмор, Телепередача
    Участники: Илья Олейников, Юрий Стоянов

    Описание
    Говорят, что смех продлевает жизнь. Если это правда, то перед вами возможность прожить подольше. Причём, Вы проведёте это время не где-нибудь, а в Городке, в компании с любимыми народными артистами Ильей Олейниковым, Юрием Стояновым и еще примерно четырьмя сотнями их смешных персонажей. Там, где-то в Городке, среди его чудаковатых горожан живём и мы с вами. Точно, где-то там - смотрите внимательней! В каждом кадре может промелькнуть знакомое лицо, интонация, жест, манера, поступок… И если вы вдруг не найдете на экране себя и ваших знакомых, значит вы просто пока еще не попались на глаза режиссёру передачи! А может, все-таки уже попались? Смотрите внимательней! Смейтесь и продлевайте жизнь вместе с десятками миллионов жителей Городка.

    Релиз от: UrryMan
    Продолжительность: 6 х ~03: 00: 00 + 4 х ~01: 30: 00
    Качество видео: DVDRip
    Примечание: Источником рипа послужилаэта раздача. За что пользователюRommihail огромное спасибо!
    Видео: AVC (H.264), 720x576@768x576, ~1800 kbps
    Аудио: AC3, 2 ch, 48 kHz, 192 kbps
    Общее
    Уникальный идентификатор : 98046070243478776637894682585060817477 (0x49C2FC7B9C31F427589E9560D41B3A45)
    Полное имя : D: ХранилищеВидеоГородокGorodok.Disk.01.mkv
    Формат : Matroska
    Версия формата : Version 4
    Размер файла : 2, 60 Гбайт
    Продолжительность : 3 ч. 6 м.
    Общий поток : 1994 Кбит/сек
    Дата кодирования : UTC 2018-10-30 13: 58: 39
    Программа кодирования : mkvmerge v28.1.0 ('Morning Child') 64-bit
    Библиотека кодирования : libebml v1.3.6 + libmatroska v1.4.9
    Обложка : Yes
    Attachments : cover.jpg
    Видео
    Идентификатор : 1
    Формат : AVC
    Формат/Информация : Advanced Video Codec
    Профиль формата : High@L3.1
    Настройки формата : CABAC/11 Ref Frames
    Параметр CABAC формата : Да
    Параметр RefFrames формата : 11 кадров
    Идентификатор кодека : V_MPEG4/ISO/AVC
    Продолжительность : 3 ч. 6 м.
    Битрейт : 1800 Кбит/сек
    Ширина : 720 пикселей
    Высота : 576 пикселей
    Соотношение сторон : 4: 3
    Режим частоты кадров : Постоянный
    Частота кадров : 25, 000 кадров/сек
    Стандарт вещания : PAL
    Цветовое пространство : YUV
    Субдискретизация насыщенности : 4: 2: 0
    Битовая глубина : 8 бит
    Тип развёртки : Прогрессивная
    Бит/(Пиксели*Кадры) : 0.174
    Размер потока : 2, 35 Гбайт (90%)
    Библиотека кодирования : x264 core 155 r2901 7d0ff22
    Настройки программы : cabac=1/ref=11/deblock=1: -1: -1/analyse=0x3: 0x133/me=esa/subme=11/psy=1/psy_rd=1.00: 0.00/mixed_ref=1/me_range=24/chroma_me=1/trellis=2/8x8dct=1/cqm=0/deadzone=21, 11/fast_pskip=0/chroma_qp_offset=-2/threads=18/lookahead_threads=1/sliced_threads=0/nr=0/decimate=1/interlaced=0/bluray_compat=0/constrained_intra=0/bframes=3/b_pyramid=2/b_adapt=2/b_bias=0/direct=3/weightb=1/open_gop=0/weightp=2/keyint=250/keyint_min=25/scenecut=40/intra_refresh=0/rc_lookahead=100/rc=2pass/mbtree=1/bitrate=1800/ratetol=4.0/qcomp=0.70/qpmin=0/qpmax=51/qpstep=4/cplxblur=20.0/qblur=0.5/vbv_maxrate=17500/vbv_bufsize=17500/nal_hrd=none/filler=0/ip_ratio=1.40/aq=1: 0.90
    Default : Да
    Forced : Нет
    Аудио
    Идентификатор : 2
    Формат : AC-3
    Формат/Информация : Audio Coding 3
    Коммерческое название : Dolby Digital
    Идентификатор кодека : A_AC3
    Продолжительность : 3 ч. 6 м.
    Вид битрейта : Постоянный
    Битрейт : 192 Кбит/сек
    Каналы : 2 канала
    Channel layout : L R
    Частота : 48, 0 КГц
    Частота кадров : 31, 250 кадров/сек (1536 SPF)
    Битовая глубина : 16 бит
    Метод сжатия : С потерями
    Размер потока : 257 Мбайт (10%)
    Язык : Russian
    ServiceKind/String : Complete Main
    Default : Да
    Forced : Нет
    Меню
    00: 00: 00.000 : en: Chapter 1
    00: 23: 15.640 : en: Chapter 2
    00: 47: 04.760 : en: Chapter 3
    01: 10: 07.280 : en: Chapter 4
    01: 33: 38.280 : en: Chapter 5
    01: 57: 21.320 : en: Chapter 6
    02: 20: 17.120 : en: Chapter 7
    02: 43: 39.360 : en: Chapter 8
    Общее
    Уникальный идентификатор : 72296238101644470739489555342787346370 (0x3663BFBD53B5CFDD65C8FF888C27FFC2)
    Полное имя : D: ХранилищеВидеоГородокGorodok.Disk.02.mkv
    Формат : Matroska
    Версия формата : Version 4
    Размер файла : 2, 86 Гбайт
    Продолжительность : 3 ч. 25 м.
    Общий поток : 1994 Кбит/сек
    Дата кодирования : UTC 2018-10-30 14: 00: 44
    Программа кодирования : mkvmerge v28.1.0 ('Morning Child') 64-bit
    Библиотека кодирования : libebml v1.3.6 + libmatroska v1.4.9
    Обложка : Yes
    Attachments : cover.jpg
    Видео
    Идентификатор : 1
    Формат : AVC
    Формат/Информация : Advanced Video Codec
    Профиль формата : High@L3.1
    Настройки формата : CABAC/11 Ref Frames
    Параметр CABAC формата : Да
    Параметр RefFrames формата : 11 кадров
    Идентификатор кодека : V_MPEG4/ISO/AVC
    Продолжительность : 3 ч. 25 м.
    Битрейт : 1800 Кбит/сек
    Ширина : 720 пикселей
    Высота : 576 пикселей
    Соотношение сторон : 4: 3
    Режим частоты кадров : Постоянный
    Частота кадров : 25, 000 кадров/сек
    Стандарт вещания : PAL
    Цветовое пространство : YUV
    Субдискретизация насыщенности : 4: 2: 0
    Битовая глубина : 8 бит
    Тип развёртки : Прогрессивная
    Бит/(Пиксели*Кадры) : 0.174
    Размер потока : 2, 58 Гбайт (90%)
    Библиотека кодирования : x264 core 155 r2901 7d0ff22
    Настройки программы : cabac=1/ref=11/deblock=1: -1: -1/analyse=0x3: 0x133/me=esa/subme=11/psy=1/psy_rd=1.00: 0.00/mixed_ref=1/me_range=24/chroma_me=1/trellis=2/8x8dct=1/cqm=0/deadzone=21, 11/fast_pskip=0/chroma_qp_offset=-2/threads=18/lookahead_threads=1/sliced_threads=0/nr=0/decimate=1/interlaced=0/bluray_compat=0/constrained_intra=0/bframes=3/b_pyramid=2/b_adapt=2/b_bias=0/direct=3/weightb=1/open_gop=0/weightp=2/keyint=250/keyint_min=25/scenecut=40/intra_refresh=0/rc_lookahead=100/rc=2pass/mbtree=1/bitrate=1800/ratetol=4.0/qcomp=0.70/qpmin=0/qpmax=51/qpstep=4/cplxblur=20.0/qblur=0.5/vbv_maxrate=17500/vbv_bufsize=17500/nal_hrd=none/filler=0/ip_ratio=1.40/aq=1: 0.90
    Default : Да
    Forced : Нет
    Аудио
    Идентификатор : 2
    Формат : AC-3
    Формат/Информация : Audio Coding 3
    Коммерческое название : Dolby Digital
    Идентификатор кодека : A_AC3
    Продолжительность : 3 ч. 25 м.
    Вид битрейта : Постоянный
    Битрейт : 192 Кбит/сек
    Каналы : 2 канала
    Channel layout : L R
    Частота : 48, 0 КГц
    Частота кадров : 31, 250 кадров/сек (1536 SPF)
    Битовая глубина : 16 бит
    Метод сжатия : С потерями
    Размер потока : 282 Мбайт (10%)
    Язык : Russian
    ServiceKind/String : Complete Main
    Default : Да
    Forced : Нет
    Меню
    00: 00: 00.000 : en: Chapter 1
    00: 23: 23.440 : en: Chapter 2
    00: 46: 20.000 : en: Chapter 3
    01: 09: 11.520 : en: Chapter 4
    01: 32: 14.400 : en: Chapter 5
    01: 37: 10.840 : en: Chapter 6
    01: 59: 53.040 : en: Chapter 7
    02: 28: 06.560 : en: Chapter 8
    02: 56: 36.240 : en: Chapter 9
    Общее
    Уникальный идентификатор : 329016380414152367280434770785520555179 (0xF7863FFAFA0E8850D3BFE460DA6B94AB)
    Полное имя : D: ХранилищеВидеоГородокGorodok.Disk.03.mkv
    Формат : Matroska
    Версия формата : Version 4
    Размер файла : 2, 64 Гбайт
    Продолжительность : 3 ч. 9 м.
    Общий поток : 1993 Кбит/сек
    Дата кодирования : UTC 2018-10-30 14: 02: 48
    Программа кодирования : mkvmerge v28.1.0 ('Morning Child') 64-bit
    Библиотека кодирования : libebml v1.3.6 + libmatroska v1.4.9
    Обложка : Yes
    Attachments : cover.jpg
    Видео
    Идентификатор : 1
    Формат : AVC
    Формат/Информация : Advanced Video Codec
    Профиль формата : High@L3.1
    Настройки формата : CABAC/11 Ref Frames
    Параметр CABAC формата : Да
    Параметр RefFrames формата : 11 кадров
    Идентификатор кодека : V_MPEG4/ISO/AVC
    Продолжительность : 3 ч. 9 м.
    Битрейт : 1800 Кбит/сек
    Ширина : 720 пикселей
    Высота : 576 пикселей
    Соотношение сторон : 4: 3
    Режим частоты кадров : Постоянный
    Частота кадров : 25, 000 кадров/сек
    Стандарт вещания : PAL
    Цветовое пространство : YUV
    Субдискретизация насыщенности : 4: 2: 0
    Битовая глубина : 8 бит
    Тип развёртки : Прогрессивная
    Бит/(Пиксели*Кадры) : 0.174
    Размер потока : 2, 38 Гбайт (90%)
    Библиотека кодирования : x264 core 155 r2901 7d0ff22
    Настройки программы : cabac=1/ref=11/deblock=1: -1: -1/analyse=0x3: 0x133/me=esa/subme=11/psy=1/psy_rd=1.00: 0.00/mixed_ref=1/me_range=24/chroma_me=1/trellis=2/8x8dct=1/cqm=0/deadzone=21, 11/fast_pskip=0/chroma_qp_offset=-2/threads=18/lookahead_threads=1/sliced_threads=0/nr=0/decimate=1/interlaced=0/bluray_compat=0/constrained_intra=0/bframes=3/b_pyramid=2/b_adapt=2/b_bias=0/direct=3/weightb=1/open_gop=0/weightp=2/keyint=250/keyint_min=25/scenecut=40/intra_refresh=0/rc_lookahead=100/rc=2pass/mbtree=1/bitrate=1800/ratetol=4.0/qcomp=0.70/qpmin=0/qpmax=51/qpstep=4/cplxblur=20.0/qblur=0.5/vbv_maxrate=17500/vbv_bufsize=17500/nal_hrd=none/filler=0/ip_ratio=1.40/aq=1: 0.90
    Default : Да
    Forced : Нет
    Аудио
    Идентификатор : 2
    Формат : AC-3
    Формат/Информация : Audio Coding 3
    Коммерческое название : Dolby Digital
    Идентификатор кодека : A_AC3
    Продолжительность : 3 ч. 9 м.
    Вид битрейта : Постоянный
    Битрейт : 192 Кбит/сек
    Каналы : 2 канала
    Channel layout : L R
    Частота : 48, 0 КГц
    Частота кадров : 31, 250 кадров/сек (1536 SPF)
    Битовая глубина : 16 бит
    Метод сжатия : С потерями
    Размер потока : 260 Мбайт (10%)
    Язык : Russian
    ServiceKind/String : Complete Main
    Default : Да
    Forced : Нет
    Меню
    00: 00: 00.000 : en: Chapter 1
    00: 29: 00.880 : en: Chapter 2
    00: 52: 12.080 : en: Chapter 3
    01: 14: 54.560 : en: Chapter 4
    01: 34: 40.800 : en: Chapter 5
    01: 37: 34.560 : en: Chapter 6
    02: 01: 03.240 : en: Chapter 7
    02: 23: 49.440 : en: Chapter 8
    02: 46: 56.800 : en: Chapter 9
    Общее
    Уникальный идентификатор : 179848560624874856704307495684426799250 (0x874D92A56550515502FE5ED804399892)
    Полное имя : D: ХранилищеВидеоГородокGorodok.Disk.04.mkv
    Формат : Matroska
    Версия формата : Version 4
    Размер файла : 2, 49 Гбайт
    Продолжительность : 2 ч. 58 м.
    Общий поток : 1994 Кбит/сек
    Дата кодирования : UTC 2018-10-30 14: 04: 37
    Программа кодирования : mkvmerge v28.1.0 ('Morning Child') 64-bit
    Библиотека кодирования : libebml v1.3.6 + libmatroska v1.4.9
    Обложка : Yes
    Attachments : cover.jpg
    Видео
    Идентификатор : 1
    Формат : AVC
    Формат/Информация : Advanced Video Codec
    Профиль формата : High@L3.1
    Настройки формата : CABAC/11 Ref Frames
    Параметр CABAC формата : Да
    Параметр RefFrames формата : 11 кадров
    Идентификатор кодека : V_MPEG4/ISO/AVC
    Продолжительность : 2 ч. 58 м.
    Битрейт : 1800 Кбит/сек
    Ширина : 720 пикселей
    Высота : 576 пикселей
    Соотношение сторон : 4: 3
    Режим частоты кадров : Постоянный
    Частота кадров : 25, 000 кадров/сек
    Стандарт вещания : PAL
    Цветовое пространство : YUV
    Субдискретизация насыщенности : 4: 2: 0
    Битовая глубина : 8 бит
    Тип развёртки : Прогрессивная
    Бит/(Пиксели*Кадры) : 0.174
    Размер потока : 2, 25 Гбайт (90%)
    Библиотека кодирования : x264 core 155 r2901 7d0ff22
    Настройки программы : cabac=1/ref=11/deblock=1: -1: -1/analyse=0x3: 0x133/me=esa/subme=11/psy=1/psy_rd=1.00: 0.00/mixed_ref=1/me_range=24/chroma_me=1/trellis=2/8x8dct=1/cqm=0/deadzone=21, 11/fast_pskip=0/chroma_qp_offset=-2/threads=18/lookahead_threads=1/sliced_threads=0/nr=0/decimate=1/interlaced=0/bluray_compat=0/constrained_intra=0/bframes=3/b_pyramid=2/b_adapt=2/b_bias=0/direct=3/weightb=1/open_gop=0/weightp=2/keyint=250/keyint_min=25/scenecut=40/intra_refresh=0/rc_lookahead=100/rc=2pass/mbtree=1/bitrate=1800/ratetol=4.0/qcomp=0.70/qpmin=0/qpmax=51/qpstep=4/cplxblur=20.0/qblur=0.5/vbv_maxrate=17500/vbv_bufsize=17500/nal_hrd=none/filler=0/ip_ratio=1.40/aq=1: 0.90
    Default : Да
    Forced : Нет
    Аудио
    Идентификатор : 2
    Формат : AC-3
    Формат/Информация : Audio Coding 3
    Коммерческое название : Dolby Digital
    Идентификатор кодека : A_AC3
    Продолжительность : 2 ч. 58 м.
    Вид битрейта : Постоянный
    Битрейт : 192 Кбит/сек
    Каналы : 2 канала
    Channel layout : L R
    Частота : 48, 0 КГц
    Частота кадров : 31, 250 кадров/сек (1536 SPF)
    Битовая глубина : 16 бит
    Метод сжатия : С потерями
    Размер потока : 246 Мбайт (10%)
    Язык : Russian
    ServiceKind/String : Complete Main
    Default : Да
    Forced : Нет
    Меню
    00: 00: 00.000 : en: Chapter 1
    00: 22: 48.720 : en: Chapter 2
    00: 45: 40.480 : en: Chapter 3
    01: 05: 21.840 : en: Chapter 4
    01: 27: 36.360 : en: Chapter 5
    01: 31: 14.160 : en: Chapter 6
    01: 50: 18.080 : en: Chapter 7
    02: 12: 59.320 : en: Chapter 8
    02: 24: 04.040 : en: Chapter 9
    02: 35: 58.000 : en: Chapter 10
    Общее
    Уникальный идентификатор : 204371031187962644991458712727901848382 (0x99C06DCA9F48DD28F3A85514F126433E)
    Полное имя : D: ХранилищеВидеоГородокGorodok.Disk.05.mkv
    Формат : Matroska
    Версия формата : Version 4
    Размер файла : 2, 49 Гбайт
    Продолжительность : 2 ч. 58 м.
    Общий поток : 1993 Кбит/сек
    Дата кодирования : UTC 2018-10-30 14: 06: 23
    Программа кодирования : mkvmerge v28.1.0 ('Morning Child') 64-bit
    Библиотека кодирования : libebml v1.3.6 + libmatroska v1.4.9
    Обложка : Yes
    Attachments : cover.jpg
    Видео
    Идентификатор : 1
    Формат : AVC
    Формат/Информация : Advanced Video Codec
    Профиль формата : High@L3.1
    Настройки формата : CABAC/11 Ref Frames
    Параметр CABAC формата : Да
    Параметр RefFrames формата : 11 кадров
    Идентификатор кодека : V_MPEG4/ISO/AVC
    Продолжительность : 2 ч. 58 м.
    Битрейт : 1800 Кбит/сек
    Ширина : 720 пикселей
    Высота : 576 пикселей
    Соотношение сторон : 4: 3
    Режим частоты кадров : Постоянный
    Частота кадров : 25, 000 кадров/сек
    Стандарт вещания : PAL
    Цветовое пространство : YUV
    Субдискретизация насыщенности : 4: 2: 0
    Битовая глубина : 8 бит
    Тип развёртки : Прогрессивная
    Бит/(Пиксели*Кадры) : 0.174
    Размер потока : 2, 24 Гбайт (90%)
    Библиотека кодирования : x264 core 155 r2901 7d0ff22
    Настройки программы : cabac=1/ref=11/deblock=1: -1: -1/analyse=0x3: 0x133/me=esa/subme=11/psy=1/psy_rd=1.00: 0.00/mixed_ref=1/me_range=24/chroma_me=1/trellis=2/8x8dct=1/cqm=0/deadzone=21, 11/fast_pskip=0/chroma_qp_offset=-2/threads=18/lookahead_threads=1/sliced_threads=0/nr=0/decimate=1/interlaced=0/bluray_compat=0/constrained_intra=0/bframes=3/b_pyramid=2/b_adapt=2/b_bias=0/direct=3/weightb=1/open_gop=0/weightp=2/keyint=250/keyint_min=25/scenecut=40/intra_refresh=0/rc_lookahead=100/rc=2pass/mbtree=1/bitrate=1800/ratetol=4.0/qcomp=0.70/qpmin=0/qpmax=51/qpstep=4/cplxblur=20.0/qblur=0.5/vbv_maxrate=17500/vbv_bufsize=17500/nal_hrd=none/filler=0/ip_ratio=1.40/aq=1: 0.90
    Default : Да
    Forced : Нет
    Аудио
    Идентификатор : 2
    Формат : AC-3
    Формат/Информация : Audio Coding 3
    Коммерческое название : Dolby Digital
    Идентификатор кодека : A_AC3
    Продолжительность : 2 ч. 58 м.
    Вид битрейта : Постоянный
    Битрейт : 192 Кбит/сек
    Каналы : 2 канала
    Channel layout : L R
    Частота : 48, 0 КГц
    Частота кадров : 31, 250 кадров/сек (1536 SPF)
    Битовая глубина : 16 бит
    Метод сжатия : С потерями
    Размер потока : 245 Мбайт (10%)
    Язык : Russian
    ServiceKind/String : Complete Main
    Default : Да
    Forced : Нет
    Меню
    00: 00: 00.000 : en: Chapter 1
    00: 24: 24.840 : en: Chapter 2
    00: 47: 38.800 : en: Chapter 3
    01: 08: 54.320 : en: Chapter 4
    01: 24: 31.000 : en: Chapter 5
    01: 26: 32.240 : en: Chapter 6
    01: 44: 35.880 : en: Chapter 7
    02: 07: 13.640 : en: Chapter 8
    02: 35: 37.560 : en: Chapter 9
    Общее
    Уникальный идентификатор : 76783374621654163374477660750763759877 (0x39C3F0A68F347D8E041868BEEE639905)
    Полное имя : D: ХранилищеВидеоГородокGorodok.Disk.06.mkv
    Формат : Matroska
    Версия формата : Version 4
    Размер файла : 2, 57 Гбайт
    Продолжительность : 3 ч. 4 м.
    Общий поток : 1994 Кбит/сек
    Дата кодирования : UTC 2018-10-30 14: 08: 25
    Программа кодирования : mkvmerge v28.1.0 ('Morning Child') 64-bit
    Библиотека кодирования : libebml v1.3.6 + libmatroska v1.4.9
    Обложка : Yes
    Attachments : cover.jpg
    Видео
    Идентификатор : 1
    Формат : AVC
    Формат/Информация : Advanced Video Codec
    Профиль формата : High@L3.1
    Настройки формата : CABAC/11 Ref Frames
    Параметр CABAC формата : Да
    Параметр RefFrames формата : 11 кадров
    Идентификатор кодека : V_MPEG4/ISO/AVC
    Продолжительность : 3 ч. 4 м.
    Битрейт : 1800 Кбит/сек
    Ширина : 720 пикселей
    Высота : 576 пикселей
    Соотношение сторон : 4: 3
    Режим частоты кадров : Постоянный
    Частота кадров : 25, 000 кадров/сек
    Стандарт вещания : PAL
    Цветовое пространство : YUV
    Субдискретизация насыщенности : 4: 2: 0
    Битовая глубина : 8 бит
    Тип развёртки : Прогрессивная
    Бит/(Пиксели*Кадры) : 0.174
    Размер потока : 2, 32 Гбайт (90%)
    Библиотека кодирования : x264 core 155 r2901 7d0ff22
    Настройки программы : cabac=1/ref=11/deblock=1: -1: -1/analyse=0x3: 0x133/me=esa/subme=11/psy=1/psy_rd=1.00: 0.00/mixed_ref=1/me_range=24/chroma_me=1/trellis=2/8x8dct=1/cqm=0/deadzone=21, 11/fast_pskip=0/chroma_qp_offset=-2/threads=18/lookahead_threads=1/sliced_threads=0/nr=0/decimate=1/interlaced=0/bluray_compat=0/constrained_intra=0/bframes=3/b_pyramid=2/b_adapt=2/b_bias=0/direct=3/weightb=1/open_gop=0/weightp=2/keyint=250/keyint_min=25/scenecut=40/intra_refresh=0/rc_lookahead=100/rc=2pass/mbtree=1/bitrate=1800/ratetol=4.0/qcomp=0.70/qpmin=0/qpmax=51/qpstep=4/cplxblur=20.0/qblur=0.5/vbv_maxrate=17500/vbv_bufsize=17500/nal_hrd=none/filler=0/ip_ratio=1.40/aq=1: 0.90
    Default : Да
    Forced : Нет
    Аудио
    Идентификатор : 2
    Формат : AC-3
    Формат/Информация : Audio Coding 3
    Коммерческое название : Dolby Digital
    Идентификатор кодека : A_AC3
    Продолжительность : 3 ч. 4 м.
    Вид битрейта : Постоянный
    Битрейт : 192 Кбит/сек
    Каналы : 2 канала
    Channel layout : L R
    Частота : 48, 0 КГц
    Частота кадров : 31, 250 кадров/сек (1536 SPF)
    Битовая глубина : 16 бит
    Метод сжатия : С потерями
    Размер потока : 253 Мбайт (10%)
    Язык : Russian
    ServiceKind/String : Complete Main
    Default : Да
    Forced : Нет
    Меню
    00: 00: 00.000 : en: Chapter 1
    00: 00: 26.680 : en: Chapter 2
    00: 23: 58.240 : en: Chapter 3
    00: 46: 45.840 : en: Chapter 4
    01: 09: 44.960 : en: Chapter 5
    01: 33: 20.040 : en: Chapter 6
    01: 57: 00.240 : en: Chapter 7
    02: 19: 33.120 : en: Chapter 8
    02: 41: 54.600 : en: Chapter 9
    03: 04: 13.760 : en: Chapter 10
    Общее
    Уникальный идентификатор : 136080052277187533797151663439473843608 (0x666010938CEC0343BC9E261183B49D98)
    Полное имя : D: ХранилищеВидеоГородокGorodok.Disk.07.mkv
    Формат : Matroska
    Версия формата : Version 4
    Размер файла : 1, 26 Гбайт
    Продолжительность : 1 ч. 30 м.
    Общий поток : 1998 Кбит/сек
    Дата кодирования : UTC 2018-10-30 14: 10: 20
    Программа кодирования : mkvmerge v28.1.0 ('Morning Child') 64-bit
    Библиотека кодирования : libebml v1.3.6 + libmatroska v1.4.9
    Обложка : Yes
    Attachments : cover.jpg
    Видео
    Идентификатор : 1
    Формат : AVC
    Формат/Информация : Advanced Video Codec
    Профиль формата : High@L3.1
    Настройки формата : CABAC/11 Ref Frames
    Параметр CABAC формата : Да
    Параметр RefFrames формата : 11 кадров
    Идентификатор кодека : V_MPEG4/ISO/AVC
    Продолжительность : 1 ч. 30 м.
    Битрейт : 1800 Кбит/сек
    Ширина : 720 пикселей
    Высота : 576 пикселей
    Соотношение сторон : 4: 3
    Режим частоты кадров : Постоянный
    Частота кадров : 25, 000 кадров/сек
    Стандарт вещания : PAL
    Цветовое пространство : YUV
    Субдискретизация насыщенности : 4: 2: 0
    Битовая глубина : 8 бит
    Тип развёртки : Прогрессивная
    Бит/(Пиксели*Кадры) : 0.174
    Размер потока : 1, 14 Гбайт (90%)
    Библиотека кодирования : x264 core 155 r2901 7d0ff22
    Настройки программы : cabac=1/ref=11/deblock=1: -1: -1/analyse=0x3: 0x133/me=esa/subme=11/psy=1/psy_rd=1.00: 0.00/mixed_ref=1/me_range=24/chroma_me=1/trellis=2/8x8dct=1/cqm=0/deadzone=21, 11/fast_pskip=0/chroma_qp_offset=-2/threads=18/lookahead_threads=1/sliced_threads=0/nr=0/decimate=1/interlaced=0/bluray_compat=0/constrained_intra=0/bframes=3/b_pyramid=2/b_adapt=2/b_bias=0/direct=3/weightb=1/open_gop=0/weightp=2/keyint=250/keyint_min=25/scenecut=40/intra_refresh=0/rc_lookahead=100/rc=2pass/mbtree=1/bitrate=1800/ratetol=4.0/qcomp=0.70/qpmin=0/qpmax=51/qpstep=4/cplxblur=20.0/qblur=0.5/vbv_maxrate=17500/vbv_bufsize=17500/nal_hrd=none/filler=0/ip_ratio=1.40/aq=1: 0.90
    Default : Да
    Forced : Нет
    Аудио
    Идентификатор : 2
    Формат : AC-3
    Формат/Информация : Audio Coding 3
    Коммерческое название : Dolby Digital
    Идентификатор кодека : A_AC3
    Продолжительность : 1 ч. 30 м.
    Вид битрейта : Постоянный
    Битрейт : 192 Кбит/сек
    Каналы : 2 канала
    Channel layout : L R
    Частота : 48, 0 КГц
    Частота кадров : 31, 250 кадров/сек (1536 SPF)
    Битовая глубина : 16 бит
    Метод сжатия : С потерями
    Размер потока : 124 Мбайт (10%)
    Язык : Russian
    ServiceKind/String : Complete Main
    Default : Да
    Forced : Нет
    Меню
    00: 00: 00.000 : en: Chapter 1
    00: 00: 26.680 : en: Chapter 2
    00: 23: 44.320 : en: Chapter 3
    00: 45: 52.880 : en: Chapter 4
    01: 07: 53.200 : en: Chapter 5
    01: 30: 19.080 : en: Chapter 6
    Общее
    Уникальный идентификатор : 214983230509939432683572539494449272187 (0xA1BC439D3D1072B7B0A0B0CC9B53D57B)
    Полное имя : D: ХранилищеВидеоГородокGorodok.Disk.08.mkv
    Формат : Matroska
    Версия формата : Version 4
    Размер файла : 1, 26 Гбайт
    Продолжительность : 1 ч. 30 м.
    Общий поток : 1993 Кбит/сек
    Дата кодирования : UTC 2018-10-30 14: 11: 53
    Программа кодирования : mkvmerge v28.1.0 ('Morning Child') 64-bit
    Библиотека кодирования : libebml v1.3.6 + libmatroska v1.4.9
    Обложка : Yes
    Attachments : cover.jpg
    Видео
    Идентификатор : 1
    Формат : AVC
    Формат/Информация : Advanced Video Codec
    Профиль формата : High@L3.1
    Настройки формата : CABAC/11 Ref Frames
    Параметр CABAC формата : Да
    Параметр RefFrames формата : 11 кадров
    Идентификатор кодека : V_MPEG4/ISO/AVC
    Продолжительность : 1 ч. 30 м.
    Битрейт : 1800 Кбит/сек
    Ширина : 720 пикселей
    Высота : 576 пикселей
    Соотношение сторон : 4: 3
    Режим частоты кадров : Постоянный
    Частота кадров : 25, 000 кадров/сек
    Стандарт вещания : PAL
    Цветовое пространство : YUV
    Субдискретизация насыщенности : 4: 2: 0
    Битовая глубина : 8 бит
    Тип развёртки : Прогрессивная
    Бит/(Пиксели*Кадры) : 0.174
    Размер потока : 1, 14 Гбайт (90%)
    Библиотека кодирования : x264 core 155 r2901 7d0ff22
    Настройки программы : cabac=1/ref=11/deblock=1: -1: -1/analyse=0x3: 0x133/me=esa/subme=11/psy=1/psy_rd=1.00: 0.00/mixed_ref=1/me_range=24/chroma_me=1/trellis=2/8x8dct=1/cqm=0/deadzone=21, 11/fast_pskip=0/chroma_qp_offset=-2/threads=18/lookahead_threads=1/sliced_threads=0/nr=0/decimate=1/interlaced=0/bluray_compat=0/constrained_intra=0/bframes=3/b_pyramid=2/b_adapt=2/b_bias=0/direct=3/weightb=1/open_gop=0/weightp=2/keyint=250/keyint_min=25/scenecut=40/intra_refresh=0/rc_lookahead=100/rc=2pass/mbtree=1/bitrate=1800/ratetol=4.0/qcomp=0.70/qpmin=0/qpmax=51/qpstep=4/cplxblur=20.0/qblur=0.5/vbv_maxrate=17500/vbv_bufsize=17500/nal_hrd=none/filler=0/ip_ratio=1.40/aq=1: 0.90
    Default : Да
    Forced : Нет
    Аудио
    Идентификатор : 2
    Формат : AC-3
    Формат/Информация : Audio Coding 3
    Коммерческое название : Dolby Digital
    Идентификатор кодека : A_AC3
    Продолжительность : 1 ч. 30 м.
    Вид битрейта : Постоянный
    Битрейт : 192 Кбит/сек
    Каналы : 2 канала
    Channel layout : L R
    Частота : 48, 0 КГц
    Частота кадров : 31, 250 кадров/сек (1536 SPF)
    Битовая глубина : 16 бит
    Метод сжатия : С потерями
    Размер потока : 125 Мбайт (10%)
    Язык : Russian
    ServiceKind/String : Complete Main
    Default : Да
    Forced : Нет
    Меню
    00: 00: 00.000 : en: Chapter 1
    00: 00: 26.680 : en: Chapter 2
    00: 23: 17.680 : en: Chapter 3
    00: 45: 40.600 : en: Chapter 4
    01: 08: 17.400 : en: Chapter 5
    01: 30: 38.080 : en: Chapter 6
    Общее
    Уникальный идентификатор : 300958290503860966295781657800380144841 (0xE26A7557B0B7C41EBDDC42C9EF8E5CC9)
    Полное имя : D: ХранилищеВидеоГородокGorodok.Disk.09.mkv
    Формат : Matroska
    Версия формата : Version 4
    Размер файла : 1, 56 Гбайт
    Продолжительность : 1 ч. 52 м.
    Общий поток : 1995 Кбит/сек
    Дата кодирования : UTC 2018-10-30 14: 13: 35
    Программа кодирования : mkvmerge v28.1.0 ('Morning Child') 64-bit
    Библиотека кодирования : libebml v1.3.6 + libmatroska v1.4.9
    Обложка : Yes
    Attachments : cover.jpg
    Видео
    Идентификатор : 1
    Формат : AVC
    Формат/Информация : Advanced Video Codec
    Профиль формата : High@L3.1
    Настройки формата : CABAC/11 Ref Frames
    Параметр CABAC формата : Да
    Параметр RefFrames формата : 11 кадров
    Идентификатор кодека : V_MPEG4/ISO/AVC
    Продолжительность : 1 ч. 52 м.
    Битрейт : 1800 Кбит/сек
    Ширина : 720 пикселей
    Высота : 576 пикселей
    Соотношение сторон : 4: 3
    Режим частоты кадров : Постоянный
    Частота кадров : 25, 000 кадров/сек
    Стандарт вещания : PAL
    Цветовое пространство : YUV
    Субдискретизация насыщенности : 4: 2: 0
    Битовая глубина : 8 бит
    Тип развёртки : Прогрессивная
    Бит/(Пиксели*Кадры) : 0.174
    Размер потока : 1, 41 Гбайт (90%)
    Библиотека кодирования : x264 core 155 r2901 7d0ff22
    Настройки программы : cabac=1/ref=11/deblock=1: -1: -1/analyse=0x3: 0x133/me=esa/subme=11/psy=1/psy_rd=1.00: 0.00/mixed_ref=1/me_range=24/chroma_me=1/trellis=2/8x8dct=1/cqm=0/deadzone=21, 11/fast_pskip=0/chroma_qp_offset=-2/threads=18/lookahead_threads=1/sliced_threads=0/nr=0/decimate=1/interlaced=0/bluray_compat=0/constrained_intra=0/bframes=3/b_pyramid=2/b_adapt=2/b_bias=0/direct=3/weightb=1/open_gop=0/weightp=2/keyint=250/keyint_min=25/scenecut=40/intra_refresh=0/rc_lookahead=100/rc=2pass/mbtree=1/bitrate=1800/ratetol=4.0/qcomp=0.70/qpmin=0/qpmax=51/qpstep=4/cplxblur=20.0/qblur=0.5/vbv_maxrate=17500/vbv_bufsize=17500/nal_hrd=none/filler=0/ip_ratio=1.40/aq=1: 0.90
    Default : Да
    Forced : Нет
    Аудио
    Идентификатор : 2
    Формат : AC-3
    Формат/Информация : Audio Coding 3
    Коммерческое название : Dolby Digital
    Идентификатор кодека : A_AC3
    Продолжительность : 1 ч. 52 м.
    Вид битрейта : Постоянный
    Битрейт : 192 Кбит/сек
    Каналы : 2 канала
    Channel layout : L R
    Частота : 48, 0 КГц
    Частота кадров : 31, 250 кадров/сек (1536 SPF)
    Битовая глубина : 16 бит
    Метод сжатия : С потерями
    Размер потока : 154 Мбайт (10%)
    Язык : Russian
    ServiceKind/String : Complete Main
    Default : Да
    Forced : Нет
    Меню
    00: 00: 00.000 : en: Chapter 1
    00: 00: 26.680 : en: Chapter 2
    00: 28: 40.840 : en: Chapter 3
    00: 56: 49.960 : en: Chapter 4
    01: 25: 04.600 : en: Chapter 5
    01: 52: 16.360 : en: Chapter 6
    Общее
    Уникальный идентификатор : 314599484597080013630465753871792139601 (0xECADA823389770C936D0270A5726ED51)
    Полное имя : D: ХранилищеВидеоГородокGorodok.Disk.10.mkv
    Формат : Matroska
    Версия формата : Version 4
    Размер файла : 1, 42 Гбайт
    Продолжительность : 1 ч. 41 м.
    Общий поток : 1994 Кбит/сек
    Дата кодирования : UTC 2018-10-30 14: 14: 43
    Программа кодирования : mkvmerge v28.1.0 ('Morning Child') 64-bit
    Библиотека кодирования : libebml v1.3.6 + libmatroska v1.4.9
    Обложка : Yes
    Attachments : cover.jpg
    Видео
    Идентификатор : 1
    Формат : AVC
    Формат/Информация : Advanced Video Codec
    Профиль формата : High@L3.1
    Настройки формата : CABAC/11 Ref Frames
    Параметр CABAC формата : Да
    Параметр RefFrames формата : 11 кадров
    Идентификатор кодека : V_MPEG4/ISO/AVC
    Продолжительность : 1 ч. 41 м.
    Битрейт : 1800 Кбит/сек
    Ширина : 720 пикселей
    Высота : 576 пикселей
    Соотношение сторон : 4: 3
    Режим частоты кадров : Постоянный
    Частота кадров : 25, 000 кадров/сек
    Стандарт вещания : PAL
    Цветовое пространство : YUV
    Субдискретизация насыщенности : 4: 2: 0
    Битовая глубина : 8 бит
    Тип развёртки : Прогрессивная
    Бит/(Пиксели*Кадры) : 0.174
    Размер потока : 1, 28 Гбайт (90%)
    Библиотека кодирования : x264 core 155 r2901 7d0ff22
    Настройки программы : cabac=1/ref=11/deblock=1: -1: -1/analyse=0x3: 0x133/me=esa/subme=11/psy=1/psy_rd=1.00: 0.00/mixed_ref=1/me_range=24/chroma_me=1/trellis=2/8x8dct=1/cqm=0/deadzone=21, 11/fast_pskip=0/chroma_qp_offset=-2/threads=18/lookahead_threads=1/sliced_threads=0/nr=0/decimate=1/interlaced=0/bluray_compat=0/constrained_intra=0/bframes=3/b_pyramid=2/b_adapt=2/b_bias=0/direct=3/weightb=1/open_gop=0/weightp=2/keyint=250/keyint_min=25/scenecut=40/intra_refresh=0/rc_lookahead=100/rc=2pass/mbtree=1/bitrate=1800/ratetol=4.0/qcomp=0.70/qpmin=0/qpmax=51/qpstep=4/cplxblur=20.0/qblur=0.5/vbv_maxrate=17500/vbv_bufsize=17500/nal_hrd=none/filler=0/ip_ratio=1.40/aq=1: 0.90
    Default : Да
    Forced : Нет
    Аудио
    Идентификатор : 2
    Формат : AC-3
    Формат/Информация : Audio Coding 3
    Коммерческое название : Dolby Digital
    Идентификатор кодека : A_AC3
    Продолжительность : 1 ч. 41 м.
    Вид битрейта : Постоянный
    Битрейт : 192 Кбит/сек
    Каналы : 2 канала
    Channel layout : L R
    Частота : 48, 0 КГц
    Частота кадров : 31, 250 кадров/сек (1536 SPF)
    Битовая глубина : 16 бит
    Метод сжатия : С потерями
    Размер потока : 140 Мбайт (10%)
    Язык : Russian
    ServiceKind/String : Complete Main
    Default : Да
    Forced : Нет
    Меню
    00: 00: 00.000 : en: Chapter 1
    00: 00: 26.680 : en: Chapter 2
    00: 28: 27.920 : en: Chapter 3
    00: 56: 25.080 : en: Chapter 4
    01: 19: 23.440 : en: Chapter 5
    01: 41: 56.960 : en: Chapter 6

    Скриншоты для ознакомления



    Все одноименные релизы в Клубе


    Весь Городок (2004) DVDRip [H.264] [Коллекционное издание]
    Рейтинг →
     (голосов: 1, оценка 5/5, голосовать можно 1 раз )

    Другие торренты по теме:

  • Витас - Я подарю тебе весь мир, Ч. 2 (История моей любви) (2014) [MP3|320 кб / с]<Pop> скачать через торрент бесплатно
  • Карты и контент для IGO 8.3 World Maps - весь мир (30.11.2014) <Ru / Multi> скачать через торрент бесплатно
  • Весь этот джаз / All That Jazz (1979) HDRip скачать через торрент бесплатно
  • Формула 1 / Formula 1 (Весь сезон 2014) [HDTVRip-AVC 720p 50fps, RUS] скачать через торрент бесплатно
  • Англия в общем и в частности. Выпуск №9. Весь мир - театр (2015.01.14) SATRip скачать через торрент бесплатно
  • Англия в общем и в частности. Выпуск №9. Весь мир - театр (2015.01.14) HDTV [H.264 / 1080i]
  • Основной элемент. Во весь голос (2015) SATRip скачать через торрент бесплатно
  • Джеймс Хедли Чейз | Весь мир в кармане (2015) [MP3] скачать через торрент бесплатно


    • Комментарии (0):

      Информация

      Информация

        Посетители, находящиеся в группе Гости, не могут оставлять комментарии в данной новости.

        ↓ Меню




        ↓ Опрос

        Вы добавили сайт в закладки?
        Да
        Нет


        Top 10 за месяц (Фильмы)