.
Авторизация | Регистрация
Хочешь лучшие торренты? Добавь свой email!
Добавить

Торрент скачать бесплатно

  • support: webmaster@btracker.club
» » Фокусы Менделя (2017) WEBRip [H.264 / 1080p-LQ] торрент скачать бесплатно


    Фокусы Менделя (2017) WEBRip [H.264 / 1080p-LQ] торрент скачать бесплатно

    Опубликовал: fregat | Дата: 2-11-2018, 05:00 | .torrent скачали: 0

    Фокусы Менделя (2017) WEBRip [H.264 / 1080p-LQ]Производство: Россия
    Жанр: Короткометражный, драма
    Режиссер: Татьяна Федоровская

    Актеры
    Борис Шувалов, Дарья Повереннова, Владимир Виноградов, Евгения Ахременко, Андрей Егоров

    Описание

    У профессора генетики Бориса двойной праздник — день рождения его и его сына. По пути на работу Борису встречается беременная незнакомка, и эта встреча резко меняет всю его жизнь.

    Возраст: 0+ (для любой зрительской аудитории)
    Релиз от: Алехаndr
    Продолжительность: 00: 28: 53
    Качество видео: WEBRip
    Субтитры: Отсутствуют
    Видео: AVC/H.264, 1920x804 (2.40: 1), ~1955 Kbps
    Аудио: AC3, 2 ch, 192 Kbps

    Общее
    Уникальный идентификатор : 59990208828498068681771369506285983205 (0x2D21B1A70DB514C94AE313E3A24295E5)
    Полное имя : D: Фокусы Менделя (2017).by.Алехаndr.mkv
    Формат : Matroska
    Версия формата : Version 4
    Размер файла : 443 Мбайт
    Продолжительность : 28 м. 53 с.
    Общий поток : 2146 Кбит/сек
    Дата кодирования : UTC 2018-11-01 10: 32: 51
    Программа кодирования : mkvmerge v28.2.0 ('The Awakening') 64-bit
    Библиотека кодирования : libebml v1.3.6 + libmatroska v1.4.9/Lavf57.71.100
    Видео
    Идентификатор : 1
    Формат : AVC
    Формат/Информация : Advanced Video Codec
    Профиль формата : High@L4
    Настройки формата : CABAC/2 Ref Frames
    Параметр CABAC формата : Да
    Параметр RefFrames формата : 2 кадра
    Идентификатор кодека : V_MPEG4/ISO/AVC
    Продолжительность : 28 м. 53 с.
    Битрейт : 1953 Кбит/сек
    Ширина : 1920 пикселей
    Высота : 804 пикселя
    Соотношение сторон : 2, 40: 1
    Режим частоты кадров : Постоянный
    Частота кадров : 24, 000 кадра/сек
    Цветовое пространство : YUV
    Субдискретизация насыщенности : 4: 2: 0
    Битовая глубина : 8 бит
    Тип развёртки : Прогрессивная
    Бит/(Пиксели*Кадры) : 0.053
    Размер потока : 403 Мбайт (91%)
    Default : Да
    Forced : Нет
    Цветовой диапазон : Limited
    Основные цвета : BT.709
    Характеристики трансфера : BT.709
    Коэффициенты матрицы : BT.709
    Аудио
    Идентификатор : 2
    Формат : AC-3
    Формат/Информация : Audio Coding 3
    Коммерческое название : Dolby Digital
    Идентификатор кодека : A_AC3
    Продолжительность : 28 м. 53 с.
    Вид битрейта : Постоянный
    Битрейт : 192 Кбит/сек
    Каналы : 2 канала
    Channel layout : L R
    Частота : 48, 0 КГц
    Частота кадров : 31, 250 кадров/сек (1536 SPF)
    Битовая глубина : 16 бит
    Метод сжатия : С потерями
    Размер потока : 39, 7 Мбайт (9%)
    ServiceKind/String : Complete Main
    Default : Да
    Forced : Нет

    Скриншоты для ознакомления



    Все одноименные релизы в Клубе
    Время раздачи: 24/7 (круглосуточно) (до появления первых 3-5 скачавших)


    Онлайн видео Фокусы Менделя (2017) WEBRip [H.264



    Фокусы Менделя (2017) WEBRip [H.264/1080p-LQ]
    Рейтинг →
     (голосов: 1, оценка 3/5, голосовать можно 1 раз )

    Другие торренты по теме:

  • NG: Больше чем фокусы с Ди Эм Си: Смертельный трюк / Beyond Magic With DMC (2014) SATRip скачать через торрент бесплатно
  • NG: Больше чем фокусы с Ди Эм Си: Хождение сквозь стены / Beyond Magic With DMC (2014) SATRip (Серия 2)
  • NG: Больше чем фокусы с Ди Эм Си: Вопреки гравитации / Beyond Magic With DMC (2014) SATRip (Серия 3) скачать через торрент бесплатно
  • NG: Больше чем фокусы с Ди Эм Си: Перекрестный огонь / Beyond Magic With DMC (2014) SATRip (Серия 4) скачать через торрент бесплатно
  • NG: Больше чем фокусы с Ди Эм Си: Горящий человек / Beyond Magic With DMC (2014) SATRip (Серия 5)
  • NG: Больше чем фокусы с Ди Эм Си: Карточный фокусник / Beyond Magic With DMC (2014) SATRip (Серия 6) скачать через торрент бесплатно
  • NG: Больше чем фокусы с Ди Эм Си: Разорванный / Beyond Magic With DMC (2014) SATRip (Серия 7) скачать через торрент бесплатно
  • Осторожно, мошенники! Меховые фокусы (2015.02.18) SATRip


    • Комментарии (0):

      Информация

      Информация

        Посетители, находящиеся в группе Гости, не могут оставлять комментарии в данной новости.

        ↓ Меню




        ↓ Опрос

        Вы добавили сайт в закладки?
        Да
        Нет


        Top 10 за месяц (Фильмы)