.
Авторизация | Регистрация
Хочешь лучшие торренты? Добавь свой email!
Добавить

Торрент скачать бесплатно

  • support: webmaster@btracker.club
» » Шоу Мистико / O Grande Circo Mistico (2018) WEB-DL [H.264 / 1080p-LQ] торрент скачать бесплатно


    Шоу Мистико / O Grande Circo Mistico (2018) WEB-DL [H.264 / 1080p-LQ] торрент скачать бесплатно

    Опубликовал: fregat | Дата: 2-11-2018, 05:00 | .torrent скачали: 0

    Шоу Мистико / O Grande Circo Mistico (2018) WEB-DL [H.264 / 1080p-LQ]Производство: Бразилия, Португалия, Франция/Fado Filmes, Globo Filmes, Luz Mágica Produções, Milonga Productions
    Жанр: Драма
    Режиссер: Карлус Диегис

    Актеры
    Венсан Кассель, Нуно Лопеш, Антонио де ла Крус, Албану Жерониму, Мариана Шименес, Антонио Фагундес, Давид Огродник, Катрин Муше, Бруна Линзмейер, Жезуита Барбоза

    Описание

    В мае 1910 года, когда над Землей пронеслась комета Галлея, молодой красавец доктор Фред Кипс без ума влюбился в акробатку Беатрис, вопреки воле родителей взял ее в жены и купил для нее цирк, назвав его Гранд Мистико. Так начинается эта наполненная волшебством и эротикой история, в которую вовлечены фокусник и секс-гигант Жан-Поль, звероподобный силач Рудольфо, близняшки Мария и Елена, зарабатывающие интимными услугами и полетами под куполом цирка, и прочие удивительные герои. Идут годы — Первая мировая война, Вторая, человек ступает на Луну, рушится берлинская стена, комета Галлея пронеслась над Землей снова… И только в Гранд Мистико, как и сто лет назад, каждый вечер вечно юный загадочный шпрехшталмейстер Селяви объявляет о начале представления. Шоу продолжается…

    Возраст: 18+ (зрителям, достигшим 18 лет. запрещено для детей)
    Дата мировой премьеры: 12 мая 2018
    Дата российской премьеры: 23 августа 2018, Cinema Prestige
    Дата выхода DVD/Blu-ray релиза: 23 сентября 2018, Cinema Prestige
    Продолжительность: 01: 44: 49
    Качество видео: WEB-DL
    Перевод: Дублированный (iTunes )
    Субтитры: Отсутствуют
    Видео: AVC/H.264, 1920x858, ~4602 Kbps
    Аудио #1: AC3, 6 ch, 384 Kbps | русский
    Аудио #2: AAC, 2 ch, 127 Kbps | русский

    Общее
    Уникальный идентификатор : 89103961609363466363308881762009210225 (0x4308CC7D05E6BBD6E04F71088333DD71)
    Полное имя : C: UsersUserDesktopNNMClubO.Grande.Circo.Mistico.2018.WEBDL.1080p.iTunes.mkv
    Формат : Matroska
    Версия формата : Version 4
    Размер файла : 3, 75 Гбайт
    Продолжительность : 1 ч. 44 м.
    Общий поток : 5115 Кбит/сек
    Название фильма : O.Grande.Circo.Mistico.2018.WEBDL.1080p.iTunes.RUS-ylnian
    Дата кодирования : UTC 2018-10-30 04: 20: 52
    Программа кодирования : mkvmerge v28.2.0 ('The Awakening') 64-bit
    Библиотека кодирования : libebml v1.3.6 + libmatroska v1.4.9
    Видео
    Идентификатор : 1
    Формат : AVC
    Формат/Информация : Advanced Video Codec
    Профиль формата : High@L4
    Настройки формата : CABAC/5 Ref Frames
    Параметр CABAC формата : Да
    Параметр RefFrames формата : 5 кадров
    Параметр GOP формата : N=1
    Идентификатор кодека : V_MPEG4/ISO/AVC
    Продолжительность : 1 ч. 44 м.
    Битрейт : 4602 Кбит/сек
    Ширина : 1920 пикселей
    Высота : 858 пикселей
    Соотношение сторон : 2, 25: 1
    Режим частоты кадров : Постоянный
    Частота кадров : 24, 000 кадра/сек
    Цветовое пространство : YUV
    Субдискретизация насыщенности : 4: 2: 0
    Битовая глубина : 8 бит
    Тип развёртки : Прогрессивная
    Бит/(Пиксели*Кадры) : 0.116
    Размер потока : 3, 37 Гбайт (90%)
    Заголовок : O.Grande.Circo.Mistico.2018.WEBDL.1080p.iTunes.RUS-ylnian
    Язык : Portuguese
    Default : Да
    Forced : Да
    Цветовой диапазон : Limited
    Основные цвета : BT.709
    Характеристики трансфера : BT.709
    Коэффициенты матрицы : BT.709
    Аудио #1
    Идентификатор : 2
    Формат : AC-3
    Формат/Информация : Audio Coding 3
    Коммерческое название : Dolby Digital
    Идентификатор кодека : A_AC3
    Продолжительность : 1 ч. 44 м.
    Вид битрейта : Постоянный
    Битрейт : 384 Кбит/сек
    Каналы : 6 каналов
    Channel layout : L R C LFE Ls Rs
    Частота : 48, 0 КГц
    Частота кадров : 31, 250 кадров/сек (1536 SPF)
    Битовая глубина : 16 бит
    Метод сжатия : С потерями
    Размер потока : 288 Мбайт (8%)
    Заголовок : DUB - iTunes (AC3 5.1 384 kbps)
    Язык : Russian
    ServiceKind/String : Complete Main
    Default : Да
    Forced : Да
    Аудио #2
    Идентификатор : 3
    Формат : AAC LC
    Формат/Информация : Advanced Audio Codec Low Complexity
    Идентификатор кодека : A_AAC-2
    Продолжительность : 1 ч. 44 м.
    Битрейт : 127 Кбит/сек
    Каналы : 2 канала
    Channel layout : L R
    Частота : 48, 0 КГц
    Частота кадров : 46, 875 кадров/сек (1024 SPF)
    Метод сжатия : С потерями
    Размер потока : 95, 2 Мбайт (2%)
    Заголовок : DUB - iTunes (AAC 2.0)
    Язык : Russian
    Default : Нет
    Forced : Нет
    Меню
    00: 00: 00.000 : pt: 1
    00: 08: 17.541 : pt: 2
    00: 16: 24.874 : pt: 3
    00: 25: 15.874 : pt: 4
    00: 33: 38.207 : pt: 5
    00: 42: 04.373 : pt: 6
    00: 50: 51.081 : pt: 7
    00: 59: 26.997 : pt: 8
    01: 07: 39.913 : pt: 9
    01: 16: 10.829 : pt: 10
    01: 24: 57.912 : pt: 11
    01: 32: 36.037 : pt: 12
    File: C: UsersUserDesktopNNMClubO.Grande.Circo.Mistico.2018.WEBDL.1080p.iTunes.mkv
    Duration: 01: 44: 50 (6289.79)
    Track #1: video (O.Grande.Circo.Mistico.2018.WEBDL.1080p.iTunes.RUS-ylnian)
    lang: por (21)
    codc: V_MPEG4/ISO/AVC - H264/AVC (22)
    reso: 1920x858 (1920x858) - Unknown (aka not common)
    fram: 24 fps
    rate: 4602 kbps (4601.55)
    dura: 01: 44: 50 (6289.71)
    size: 3.37 GB (3617803266)
    Track #2: audio (DUB - iTunes (AC3 5.1 384 kbps))
    lang: rus - Russian (15)
    codc: A_AC3 - AC3 (2)
    chan: 6 - 5.1 Surround
    samp: 48000 Hz
    rate: 384 kbps (384.04)
    dura: 01: 44: 50 (6289.70)
    size: 287.95 MB (301935695)
    Track #3: audio (DUB - iTunes (AAC 2.0))
    lang: rus - Russian (15)
    codc: A_AAC - AAC (9)
    chan: 2 - Stereo
    samp: 48000 Hz
    rate: 127 kbps (127.37)
    dura: 01: 44: 50 (6289.69)
    size: 95.50 MB (100136985)
    Sizes: (check sanity)
    disk: 3.75 GB (4021561937)
    trac: 3.74 GB (4019875946) based on track size
    bitr: 3.74 GB (4019876999) based on bitrate
    tdif: 1.61 MB (1685991) 0.04%
    bdif: 1.61 MB (1684937) 0.04%

    Скриншоты для ознакомления



    Все одноименные релизы в Клубе
    Время раздачи: 24/7 (до появления первых 3-5 скачавших)


    Онлайн видео Шоу Мистико



    Шоу Мистико/O Grande Circo Mistico (2018) WEB-DL [H.264/1080p-LQ]
    Рейтинг →
     (голосов: 1, оценка 5/5, голосовать можно 1 раз )

    Другие торренты по теме:

  • Шоу Мистико / O Grande Circo Mistico (2018) TS [H.264 / 720p] [AD]
  • Шоу Мистико / O Grande Circo Místico (2018) WEB-DL [H.264 / 720p] [AD]
  • Шоу Мистико / O Grande Circo Mistico (2018) WEB-DLRip [H.264 / 720p] [Line]


    • Комментарии (0):

      Информация

      Информация

        Посетители, находящиеся в группе Гости, не могут оставлять комментарии в данной новости.

        ↓ Меню




        ↓ Опрос

        Вы добавили сайт в закладки?
        Да
        Нет


        Top 10 за месяц (Фильмы)