.
Авторизация | Регистрация
Хочешь лучшие торренты? Добавь свой email!
Добавить

Торрент скачать бесплатно

  • support: webmaster@btracker.club
» » Выжившие / Hostile (2017) BDRip [H.264 / 1080p] торрент скачать бесплатно


    Выжившие / Hostile (2017) BDRip [H.264 / 1080p] торрент скачать бесплатно

    Опубликовал: fregat | Дата: 2-11-2018, 05:00 | .torrent скачали: 0

    Выжившие / Hostile (2017) BDRip [H.264 / 1080p]Производство: Франция/Cineastre, Convergence Films, Eagle Media
    Жанр: Ужасы, Драма
    Режиссер: Матьё Тури

    Актеры
    Бриттани Эшворт, Грегори Фетусси, Хавьер Ботет, Джей Бенедикт, Дэвид Гасман, Карл Гаррисон, Ричард Мейман, Мохамед Арусси, Лаура Д'Ариста, Атон

    Описание

    После апокалипсиса, когда большая часть населения Земли была уничтожена, появились ОНИ. Их назвали Выжившими. Никто не знает, живы они или мертвы, из этого мира или нет. Но теперь это их мир. Они здесь охотники, а люди - их добыча. Джулиет одна из своей группы рискует отправиться в покинутый людьми город на поиски пищи. Её путь будет долгим, он лежит через неизведанные опасные земли, и до наступления темноты она не успеет вернуться в лагерь.

    Возраст: 18+ (зрителям, достигшим 18 лет. запрещено для детей)
    Дата мировой премьеры: 4 июля 2017
    Дата российской премьеры: 30 августа 2018, Экспонента
    Дата выхода DVD/Blu-ray релиза: 27 сентября 2018, Экспонента
    Продолжительность: 01: 23: 13
    Качество видео: BDRip
    Перевод: Многоголосый закадровый, профессиональный (iTunes )
    Субтитры: Английские, немецкие, испанские, португальские, голландские, датские
    Видео: AVC/H.264, 1920x804, ~15, 0 Mbps
    Аудио #1: AC3, 6 ch, 384 Kbps | русский, многоголосый закадровый
    Аудио #2: DTS, 6 ch, 1509 Kbps | английский

    Общее
    Уникальный идентификатор : 8905359280020490928640040745535515699 (0x6B31C1C86FC23A24F94812DBC2BAC33)
    Полное имя : C: UsersUserDesktopNNMClubHostile.2017.BDRip.1080p.mkv
    Формат : Matroska
    Версия формата : Version 4
    Размер файла : 10, 0 Гбайт
    Продолжительность : 1 ч. 23 м.
    Общий поток : 17, 2 Мбит/сек
    Название фильма : Hostile.2017.BDRip.1080p-ylnian
    Дата кодирования : UTC 2018-10-31 14: 28: 38
    Программа кодирования : mkvmerge v28.2.0 ('The Awakening') 64-bit
    Библиотека кодирования : libebml v1.3.6 + libmatroska v1.4.9
    Видео
    Идентификатор : 1
    Формат : AVC
    Формат/Информация : Advanced Video Codec
    Профиль формата : High@L4.1
    Настройки формата : CABAC/4 Ref Frames
    Параметр CABAC формата : Да
    Параметр RefFrames формата : 4 кадра
    Идентификатор кодека : V_MPEG4/ISO/AVC
    Продолжительность : 1 ч. 23 м.
    Битрейт : 15, 0 Мбит/сек
    Ширина : 1920 пикселей
    Высота : 804 пикселя
    Соотношение сторон : 2, 40: 1
    Режим частоты кадров : Постоянный
    Частота кадров : 23, 976 (24000/1001) кадра/сек
    Цветовое пространство : YUV
    Субдискретизация насыщенности : 4: 2: 0
    Битовая глубина : 8 бит
    Тип развёртки : Прогрессивная
    Бит/(Пиксели*Кадры) : 0.405
    Размер потока : 8, 71 Гбайт (87%)
    Заголовок : Hostile.2017.BDRip.1080p-ylnian
    Библиотека кодирования : x264 core 155 r2901 7d0ff22
    Настройки программы : cabac=1/ref=4/deblock=1: -3: -3/analyse=0x3: 0x133/me=umh/subme=11/psy=1/psy_rd=1.05: 0.00/mixed_ref=1/me_range=64/chroma_me=1/trellis=2/8x8dct=1/cqm=0/deadzone=21, 11/fast_pskip=0/chroma_qp_offset=-4/threads=12/lookahead_threads=2/sliced_threads=0/nr=0/decimate=1/interlaced=0/bluray_compat=0/constrained_intra=0/bframes=9/b_pyramid=2/b_adapt=2/b_bias=0/direct=2/weightb=1/open_gop=0/weightp=2/keyint=250/keyint_min=23/scenecut=40/intra_refresh=0/rc_lookahead=250/rc=crf/mbtree=0/crf=17.1/qcomp=0.80/qpmin=0/qpmax=69/qpstep=4/vbv_maxrate=62500/vbv_bufsize=78125/crf_max=0.0/nal_hrd=none/filler=0/ip_ratio=1.30/pb_ratio=1.20/aq=2: 0.90
    Язык : English
    Default : Да
    Forced : Да
    Аудио #1
    Идентификатор : 2
    Формат : AC-3
    Формат/Информация : Audio Coding 3
    Коммерческое название : Dolby Digital
    Идентификатор кодека : A_AC3
    Продолжительность : 1 ч. 23 м.
    Вид битрейта : Постоянный
    Битрейт : 384 Кбит/сек
    Каналы : 6 каналов
    Channel layout : L R C LFE Ls Rs
    Частота : 48, 0 КГц
    Частота кадров : 31, 250 кадров/сек (1536 SPF)
    Битовая глубина : 16 бит
    Метод сжатия : С потерями
    Размер потока : 229 Мбайт (2%)
    Заголовок : MVO - iTunes
    Язык : Russian
    ServiceKind/String : Complete Main
    Default : Да
    Forced : Да
    Аудио #2
    Идентификатор : 3
    Формат : DTS
    Формат/Информация : Digital Theater Systems
    Идентификатор кодека : A_DTS
    Продолжительность : 1 ч. 23 м.
    Вид битрейта : Постоянный
    Битрейт : 1509 Кбит/сек
    Каналы : 6 каналов
    Channel layout : C L R Ls Rs LFE
    Частота : 48, 0 КГц
    Частота кадров : 93, 750 кадра/сек (512 SPF)
    Битовая глубина : 24 бит
    Метод сжатия : С потерями
    Размер потока : 898 Мбайт (9%)
    Язык : English
    Default : Нет
    Forced : Нет
    Текст #1
    Идентификатор : 4
    Формат : UTF-8
    Идентификатор кодека : S_TEXT/UTF8
    Идентификатор кодека/Информация : UTF-8 Plain Text
    Язык : English
    Default : Нет
    Forced : Нет
    Текст #2
    Идентификатор : 5
    Формат : UTF-8
    Идентификатор кодека : S_TEXT/UTF8
    Идентификатор кодека/Информация : UTF-8 Plain Text
    Язык : German
    Default : Нет
    Forced : Нет
    Текст #3
    Идентификатор : 6
    Формат : UTF-8
    Идентификатор кодека : S_TEXT/UTF8
    Идентификатор кодека/Информация : UTF-8 Plain Text
    Язык : Spanish
    Default : Нет
    Forced : Нет
    Текст #4
    Идентификатор : 7
    Формат : UTF-8
    Идентификатор кодека : S_TEXT/UTF8
    Идентификатор кодека/Информация : UTF-8 Plain Text
    Язык : Portuguese
    Default : Нет
    Forced : Нет
    Текст #5
    Идентификатор : 8
    Формат : UTF-8
    Идентификатор кодека : S_TEXT/UTF8
    Идентификатор кодека/Информация : UTF-8 Plain Text
    Язык : Dutch
    Default : Нет
    Forced : Нет
    Текст #6
    Идентификатор : 9
    Формат : UTF-8
    Идентификатор кодека : S_TEXT/UTF8
    Идентификатор кодека/Информация : UTF-8 Plain Text
    Язык : Danish
    Default : Нет
    Forced : Нет
    Меню
    00: 00: 00.000 : en: Chapter 1
    00: 07: 11.097 : en: Chapter 2
    00: 15: 20.920 : en: Chapter 3
    00: 23: 37.165 : en: Chapter 4
    00: 28: 50.437 : en: Chapter 5
    00: 37: 45.471 : en: Chapter 6
    00: 42: 48.065 : en: Chapter 7
    00: 51: 23.914 : en: Chapter 8
    00: 57: 39.164 : en: Chapter 9
    01: 04: 27.822 : en: Chapter 10
    01: 10: 09.914 : en: Chapter 11
    01: 19: 26.762 : en: Chapter 12

    Скриншоты для ознакомления



    Все одноименные релизы в Клубе
    Время раздачи: 24/7 (до появления первых 3-5 скачавших)


    Онлайн видео Выжившие



    Выжившие/Hostile (2017) BDRip [H.264/1080p]
    Рейтинг →
     (голосов: 1, оценка 5/5, голосовать можно 1 раз )

    Другие торренты по теме:

  • Выжившие / Hostile (2017) HDRip [MVO] [AD]
  • Выжившие / Hostile (2017) BDRip [H.264 / 1080p] [MVO] [PR]
  • Выжившие / Hostile (2017) BDRip [1080p] ATV (MVO)


    • Комментарии (0):

      Информация

      Информация

        Посетители, находящиеся в группе Гости, не могут оставлять комментарии в данной новости.

        ↓ Меню




        ↓ Опрос

        Вы добавили сайт в закладки?
        Да
        Нет


        Top 10 за месяц (Фильмы)