.
Авторизация | Регистрация
Хочешь лучшие торренты? Добавь свой email!
Добавить

Торрент скачать бесплатно

  • support: webmaster@btracker.club
» » Джим Пуговка и машинист Лукас / Jim Knopf und Lukas der Lokomotivfuhrer (2018) WEB-DL [H.264 / 720p-LQ] торрент скачать бесплатно


    Джим Пуговка и машинист Лукас / Jim Knopf und Lukas der Lokomotivfuhrer (2018) WEB-DL [H.264 / 720p-LQ] торрент скачать бесплатно

    Опубликовал: fregat | Дата: 2-11-2018, 05:00 | .torrent скачали: 0

    Джим Пуговка и машинист Лукас / Jim Knopf und Lukas der Lokomotivfuhrer (2018) WEB-DL [H.264 / 720p-LQ]Производство: Германия | Malao Film, Studio Babelsberg, Warner Bros. GmbH
    Жанр: Фэнтези, Приключения, Семейный
    Режиссер: Деннис Ганзель

    Актеры
    Хеннинг Баум, Соломон Гордон, Ширли МакЛейн, Милан Пешель, Михаэль Хербиг, Кристоф Мария Хербст, Уве Оксенкнехт, Фолькер Михаловски, Аннета Фрир, Хон Пинг Танг

    Описание

    Волшебная страна Медландия расположена на острове. Сюда почтальон доставляет посылку c маленьким мальчиком. Он вырастает в храброго искателя приключений. На поезде-вездеходе Джим отправляется через океан и пустыню в город Драконов, чтобы спасти принцессу.

    Возраст: 6+ (зрителям, достигшим 6 лет)
    Дата мировой премьеры: 29 марта 2018
    Дата российской премьеры: 28 июня 2018, Capella Film
    Дата выхода DVD/Blu-ray релиза: 1 ноября 2018, Capella Film
    Продолжительность: 01: 49: 59
    Качество видео: WEB-DL
    Перевод: Дублированный (iTunes )
    Субтитры: Отсутствуют
    Видео: AVC/H.264, 1280x572, ~4202 Kbps
    Аудио: AC3, 6 ch, 384 Kbps

    Общее
    Уникальный идентификатор : 192318014702757909707413210586131946012 (0x90AF1A32B3197868A201A582481F5A1C)
    Полное имя : C: UsersUserDesktopNNMClubJim Knopf und Lukas der Lokomotivfuhrer.WEB-DL.72Op.mkv
    Формат : Matroska
    Версия формата : Version 2
    Размер файла : 3, 52 Гбайт
    Продолжительность : 1 ч. 49 м.
    Общий поток : 4588 Кбит/сек
    Название фильма : JIM_PUGOFFKA_2018_WEB_DL_1080p-BLUEBIRD
    Дата кодирования : UTC 2018-10-31 22: 57: 33
    Программа кодирования : mkvmerge v8.3.0 ('Over the Horizon') 64bit
    Библиотека кодирования : libebml v1.3.1 + libmatroska v1.4.2
    Видео
    Идентификатор : 1
    Формат : AVC
    Формат/Информация : Advanced Video Codec
    Профиль формата : High@L4.1
    Настройки формата : CABAC/4 Ref Frames
    Параметр CABAC формата : Да
    Параметр RefFrames формата : 4 кадра
    Идентификатор кодека : V_MPEG4/ISO/AVC
    Продолжительность : 1 ч. 49 м.
    Битрейт : 4202 Кбит/сек
    Ширина : 1280 пикселей
    Высота : 572 пикселя
    Соотношение сторон : 2, 25: 1
    Режим частоты кадров : Постоянный
    Частота кадров : 24, 000 кадра/сек
    Цветовое пространство : YUV
    Субдискретизация насыщенности : 4: 2: 0
    Битовая глубина : 8 бит
    Тип развёртки : Прогрессивная
    Бит/(Пиксели*Кадры) : 0.239
    Размер потока : 3, 23 Гбайт (92%)
    Язык : German
    Default : Да
    Forced : Нет
    Аудио
    Идентификатор : 2
    Формат : AC-3
    Формат/Информация : Audio Coding 3
    Коммерческое название : Dolby Digital
    Идентификатор кодека : A_AC3
    Продолжительность : 1 ч. 49 м.
    Вид битрейта : Постоянный
    Битрейт : 384 Кбит/сек
    Каналы : 6 каналов
    Channel layout : L R C LFE Ls Rs
    Частота : 48, 0 КГц
    Частота кадров : 31, 250 кадров/сек (1536 SPF)
    Битовая глубина : 16 бит
    Метод сжатия : С потерями
    Размер потока : 302 Мбайт (8%)
    Заголовок : DUB DD 5.1 @ 384 kbps (iTunes)
    Язык : Russian
    ServiceKind/String : Complete Main
    Default : Да
    Forced : Нет
    Меню
    00: 00: 00.000 : en: Глава 1
    00: 07: 25.000 : en: Глава 2
    00: 14: 46.625 : en: Глава 3
    00: 22: 24.625 : en: Глава 4
    00: 29: 54.666 : en: Глава 5
    00: 37: 11.832 : en: Глава 6
    00: 44: 42.582 : en: Глава 7
    00: 52: 54.957 : en: Глава 8
    01: 00: 12.665 : en: Глава 9
    01: 07: 38.331 : en: Глава 10
    01: 14: 55.747 : en: Глава 11
    01: 22: 35.497 : en: Глава 12
    01: 30: 17.497 : en: Глава 13
    01: 37: 39.538 : en: Глава 14

    Скриншоты для ознакомления



    Все одноименные релизы в Клубе
    Время раздачи: 24/7 (до появления первых 3-5 скачавших)


    Онлайн видео Джим Пуговка и машинист Лукас



    Джим Пуговка и машинист Лукас/Jim Knopf und Lukas der Lokomotivfuhrer (2018) WEB-DL [H.264/720p-LQ]
    Рейтинг →
     (голосов: 1, оценка 5/5, голосовать можно 1 раз )

    Другие торренты по теме:

  • Джим Пуговка и машинист Лукас / Jim Knopf und Lukas der Lokomotivfuhrer (2018) WEB-DLRip [Line, AD]
  • Джим Пуговка и машинист Лукас / Jim Knopf und Lukas der Lokomotivfuhrer (2018) WEB-DL [H.264 / 1080p-LQ]
  • Джим Пуговка и машинист Лукас / Jim Knopf und Lukas der Lokomotivfuhrer (2018) WEB-DLRip [576p] iPad
  • Джим Пуговка и машинист Лукас / Jim Knopf und Lukas der Lokomotivfuhrer (2018) WEB-DL [1080p] ATV
  • Джим Пуговка и машинист Лукас / Jim Knopf und Lukas der Lokomotivführer (2018) WEB-DL [720p] ATV


    • Комментарии (0):

      Информация

      Информация

        Посетители, находящиеся в группе Гости, не могут оставлять комментарии в данной новости.

        ↓ Меню




        ↓ Опрос

        Вы добавили сайт в закладки?
        Да
        Нет


        Top 10 за месяц (Фильмы)