.
Авторизация | Регистрация
Хочешь лучшие торренты? Добавь свой email!
Добавить

Торрент скачать бесплатно

  • support: webmaster@btracker.club
» » Наездник / The Rider (2017) WEB-DL [H.264 / 1080p-LQ] торрент скачать бесплатно


    Наездник / The Rider (2017) WEB-DL [H.264 / 1080p-LQ] торрент скачать бесплатно

    Опубликовал: fregat | Дата: 2-11-2018, 05:00 | .torrent скачали: 0

    Наездник / The Rider (2017) WEB-DL [H.264 / 1080p-LQ]Производство: США, Caviar, Highwayman Films
    Жанр: Драма, Вестерн
    Режиссер: Хлоя Чжао

    Актеры
    Брэйди Жандро, Муни, Тим Жандро, Лилли Жандро, Лерой Поюрьер, Кэт Клиффорд, Таннер Лангдо, Джеймс Калун, Лейн Скотт, Кэмерон Райт, Джордон Слик Фелпс, Донни Вайвинд Хорс, Терри Даун Поюрьер, Аллен Редди, Грег Барбер, Кевин Хантер, Маршал Бирн, Френк Стил

    Описание

    Брэди - молодая звезда родео и одаренный дрессировщик лошадей. Однажды он получает серьезную травму головы. Брэди верит, что через какое-то время он восстановится и снова сядет в седло. Однако время проходит, и становится ясно, что Брэди нужно навсегда отказаться от верховой езды и тем более родео. Сможет ли он смириться с тем, что его мечтам не суждено сбыться, и продолжить жить дальше?

    Рейтинг MPAA: R (лицам до 17 лет обязательно присутствие взрослого)
    Дата выхода DVD/Blu-ray релиза: 10.09.2018
    Продолжительность: 01: 42: 59
    Качество видео: WEB-DL 1080p
    Перевод: Многоголосый закадровый (iTunes)
    Субтитры: Русские (студия FOCS), английские, испанские, французские, голландские, датские, шведские, норвежские
    Видео: AVC/H.264, 1920x798 (2, 40: 1), 4552 kbps
    Аудио 1: AC3, 48000 Гц, 6ch, 384 kbps | Русский
    Аудио 2: AC3, 48000 Гц, 6ch, 384 kbps | Английский

    Общее
    Уникальный идентификатор : 143404209420280668158826632064367666896 (0x6BE2A5674AE66CBFD0854678CDCD26D0)
    Полное имя : D: The.Rider.2017.WEBDL.1080p.iTunes.RUS-ylnian.mkv
    Формат : Matroska
    Версия формата : Version 4/Version 2
    Размер файла : 3, 92 Гбайт
    Продолжительность : 1 ч. 42 м.
    Общий поток : 5450 Кбит/сек
    Название фильма : The.Rider.2017.WEBDL.1080p.iTunes.RUS-ylnian
    Дата кодирования : UTC 2018-10-31 07: 09: 39
    Программа кодирования : mkvmerge v28.2.0 ('The Awakening') 64-bit
    Библиотека кодирования : libebml v1.3.6 + libmatroska v1.4.9
    Видео
    Идентификатор : 1
    Формат : AVC
    Формат/Информация : Advanced Video Codec
    Профиль формата : High@L4
    Настройки формата : CABAC/5 Ref Frames
    Параметр CABAC формата : Да
    Параметр RefFrames формата : 5 кадров
    Параметр GOP формата : M=1, N=2
    Идентификатор кодека : V_MPEG4/ISO/AVC
    Продолжительность : 1 ч. 42 м.
    Битрейт : 4552 Кбит/сек
    Ширина : 1920 пикселей
    Высота : 798 пикселей
    Соотношение сторон : 2, 40: 1
    Режим частоты кадров : Постоянный
    Частота кадров : 23, 976 (24000/1001) кадра/сек
    Цветовое пространство : YUV
    Субдискретизация насыщенности : 4: 2: 0
    Битовая глубина : 8 бит
    Тип развёртки : Прогрессивная
    Бит/(Пиксели*Кадры) : 0.124
    Размер потока : 3, 27 Гбайт (84%)
    Заголовок : The.Rider.2017.WEBDL.1080p.iTunes.RUS-ylnian
    Язык : English
    Default : Да
    Forced : Да
    Цветовой диапазон : Limited
    Основные цвета : BT.709
    Характеристики трансфера : BT.709
    Коэффициенты матрицы : BT.709
    Аудио #1
    Идентификатор : 2
    Формат : AC-3
    Формат/Информация : Audio Coding 3
    Идентификатор кодека : A_AC3
    Продолжительность : 1 ч. 42 м.
    Вид битрейта : Постоянный
    Битрейт : 384 Кбит/сек
    Каналы : 6 каналов
    Расположение каналов : Front: L C R, Side: L R, LFE
    Частота : 48, 0 КГц
    Частота кадров : 31, 250 кадров/сек (1536 SPF)
    Битовая глубина : 16 бит
    Метод сжатия : С потерями
    Размер потока : 283 Мбайт (7%)
    Заголовок : MVO - iTunes AC3 5.1
    Язык : Russian
    ServiceKind/String : Complete Main
    Default : Да
    Forced : Да
    Аудио #2
    Идентификатор : 3
    Формат : AAC
    Формат/Информация : Advanced Audio Codec
    Профиль формата : LC
    Идентификатор кодека : A_AAC-2
    Продолжительность : 1 ч. 42 м.
    Битрейт : 126 Кбит/сек
    Каналы : 2 канала
    Расположение каналов : Front: L R
    Частота : 48, 0 КГц
    Частота кадров : 46, 875 кадров/сек (1024 SPF)
    Метод сжатия : С потерями
    Размер потока : 93, 0 Мбайт (2%)
    Заголовок : MVO - iTunes AAC 2.0
    Язык : Russian
    Default : Нет
    Forced : Нет
    Аудио #3
    Идентификатор : 4
    Формат : AC-3
    Формат/Информация : Audio Coding 3
    Идентификатор кодека : A_AC3
    Продолжительность : 1 ч. 42 м.
    Вид битрейта : Постоянный
    Битрейт : 384 Кбит/сек
    Каналы : 6 каналов
    Расположение каналов : Front: L C R, Side: L R, LFE
    Частота : 48, 0 КГц
    Частота кадров : 31, 250 кадров/сек (1536 SPF)
    Битовая глубина : 16 бит
    Метод сжатия : С потерями
    Размер потока : 283 Мбайт (7%)
    Язык : English
    ServiceKind/String : Complete Main
    Default : Нет
    Forced : Нет
    Текст #1
    Идентификатор : 5
    Формат : UTF-8
    Идентификатор кодека : S_TEXT/UTF8
    Идентификатор кодека/Информация : UTF-8 Plain Text
    Продолжительность : 1 ч. 39 м.
    Битрейт : 66 бит/сек
    ElementCount : 1003
    Размер потока : 48, 2 Кбайт (0%)
    Язык : Russian
    Default : Да
    Forced : Нет
    Текст #2
    Идентификатор : 6
    Формат : UTF-8
    Идентификатор кодека : S_TEXT/UTF8
    Идентификатор кодека/Информация : UTF-8 Plain Text
    Продолжительность : 1 ч. 41 м.
    Битрейт : 48 бит/сек
    ElementCount : 1254
    Размер потока : 36, 0 Кбайт (0%)
    Язык : English
    Default : Нет
    Forced : Нет
    Текст #3
    Идентификатор : 7
    Формат : UTF-8
    Идентификатор кодека : S_TEXT/UTF8
    Идентификатор кодека/Информация : UTF-8 Plain Text
    Продолжительность : 1 ч. 41 м.
    Битрейт : 39 бит/сек
    ElementCount : 1064
    Размер потока : 29, 5 Кбайт (0%)
    Язык : Spanish
    Default : Нет
    Forced : Нет
    Текст #4
    Идентификатор : 8
    Формат : UTF-8
    Идентификатор кодека : S_TEXT/UTF8
    Идентификатор кодека/Информация : UTF-8 Plain Text
    Продолжительность : 1 ч. 39 м.
    Битрейт : 43 бит/сек
    ElementCount : 1029
    Размер потока : 31, 3 Кбайт (0%)
    Язык : French
    Default : Нет
    Forced : Нет
    Текст #5
    Идентификатор : 9
    Формат : UTF-8
    Идентификатор кодека : S_TEXT/UTF8
    Идентификатор кодека/Информация : UTF-8 Plain Text
    Продолжительность : 1 ч. 36 м.
    Битрейт : 28 бит/сек
    ElementCount : 713
    Размер потока : 20, 4 Кбайт (0%)
    Язык : Dutch
    Default : Нет
    Forced : Нет
    Текст #6
    Идентификатор : 10
    Формат : UTF-8
    Идентификатор кодека : S_TEXT/UTF8
    Идентификатор кодека/Информация : UTF-8 Plain Text
    Продолжительность : 1 ч. 37 м.
    Битрейт : 29 бит/сек
    ElementCount : 538
    Размер потока : 21, 0 Кбайт (0%)
    Язык : Danish
    Default : Нет
    Forced : Нет
    Текст #7
    Идентификатор : 11
    Формат : UTF-8
    Идентификатор кодека : S_TEXT/UTF8
    Идентификатор кодека/Информация : UTF-8 Plain Text
    Продолжительность : 1 ч. 37 м.
    Битрейт : 30 бит/сек
    ElementCount : 538
    Размер потока : 21, 7 Кбайт (0%)
    Язык : Norwegian
    Default : Нет
    Forced : Нет
    Текст #8
    Идентификатор : 12
    Формат : UTF-8
    Идентификатор кодека : S_TEXT/UTF8
    Идентификатор кодека/Информация : UTF-8 Plain Text
    Продолжительность : 1 ч. 36 м.
    Битрейт : 31 бит/сек
    ElementCount : 537
    Размер потока : 22, 5 Кбайт (0%)
    Язык : Swedish
    Default : Нет
    Forced : Нет
    Меню
    00: 00: 00.000 : en: 1
    00: 07: 33.161 : en: 2
    00: 14: 00.882 : en: 3
    00: 21: 16.776 : en: 4
    00: 27: 08.419 : en: 5
    00: 33: 29.091 : en: 6
    00: 42: 07.776 : en: 7
    00: 45: 44.742 : en: 8
    00: 50: 10.549 : en: 9
    00: 57: 29.779 : en: 10
    01: 01: 59.507 : en: 11
    01: 07: 47.521 : en: 12
    01: 15: 12.048 : en: 13
    01: 24: 08.167 : en: 14
    01: 29: 49.842 : en: 15
    01: 36: 19.147 : en: 16

    Скриншоты для ознакомления



    Все одноименные релизы в Клубе
    Время раздачи: 24/7 (до появления первых 3-5 скачавших)


    Онлайн видео Наездник



    Наездник/The Rider (2017) WEB-DL [H.264/1080p-LQ]
    Рейтинг →
     (голосов: 1, оценка 5/5, голосовать можно 1 раз )

    Другие торренты по теме:

  • Штормовой наездник / Storm Rider (2013) BDRip [720p] [EN]
  • Наездник / The Rider (2017) WEBRip [H.264] [MVO] [AD]
  • Наездник / The Rider (2017) WEB-DL [1080p] ATV (DVO)
  • Наездник / The Rider (2017) WEB-DLRip


    • Комментарии (0):

      Информация

      Информация

        Посетители, находящиеся в группе Гости, не могут оставлять комментарии в данной новости.

        ↓ Меню




        ↓ Опрос

        Вы добавили сайт в закладки?
        Да
        Нет


        Top 10 за месяц (Фильмы)