.
Авторизация | Регистрация
Хочешь лучшие торренты? Добавь свой email!
Добавить

Торрент скачать бесплатно

  • support: webmaster@btracker.club
» » Джим Пуговка и машинист Лукас / Jim Knopf und Lukas der Lokomotivfuhrer (2018) WEB-DL [H.264 / 1080p-LQ] торрент скачать бесплатно


    Джим Пуговка и машинист Лукас / Jim Knopf und Lukas der Lokomotivfuhrer (2018) WEB-DL [H.264 / 1080p-LQ] торрент скачать бесплатно

    Опубликовал: fregat | Дата: 2-11-2018, 05:00 | .torrent скачали: 0

    Джим Пуговка и машинист Лукас / Jim Knopf und Lukas der Lokomotivfuhrer (2018) WEB-DL [H.264 / 1080p-LQ]Производство: Германия | Malao Film, Studio Babelsberg, Warner Bros. GmbH
    Жанр: Фэнтези, приключения, семейный
    Режиссер: Деннис Ганзель

    Актеры
    Хеннинг Баум, Соломон Гордон, Ширли МакЛейн, Милан Пешель, Михаэль Хербиг, Кристоф Мария Хербст, Уве Оксенкнехт, Фолькер Михаловски, Аннета Фрир, Хон Пинг Танг

    Описание

    Волшебная страна Медландия расположена на острове. Сюда почтальон доставляет посылку c маленьким мальчиком. Он вырастает в храброго искателя приключений. На поезде-вездеходе Джим отправляется через океан и пустыню в город Драконов, чтобы спасти принцессу.

    Возраст: 6+ (зрителям, достигшим 6 лет)
    Дата мировой премьеры: 29 марта 2018
    Дата российской премьеры: 28 июня 2018, Capella Film
    Цифровой релиз: 1 ноября 2018, Capella Film
    Продолжительность: 01: 49: 59
    Качество видео: WEB-DL
    Перевод: Дублированный (iTunes)
    Субтитры: Отсутствуют
    Видео: AVC/H.264, 1920х858 (2.25: 1), ~4474 kbps, 24.00 fps
    Аудио: AC3, 6 ch, 48.0 kHz, 384 kbps cbr

    General
    Unique ID : 215744016322535272725658213559854806203 (0xA24EC940320520C48C021A1FACB1B4BB)
    Complete name : D: Джим_Пуговка_и_машинист_Лукас_WEB-DL_1080p_iTunes.mkv
    Format : Matroska
    Format version : Version 4
    File size : 3.81 GiB
    Duration : 1 h 49 min
    Overall bit rate : 4 956 kb/s
    Movie name : JIM_PUGOFFKA_2018_WEB_DL_1080p-BLUEBIRD
    Encoded date : UTC 2018-10-31 18: 32: 24
    Writing application : mkvmerge v6.9.1 ('Blue Panther') 32bit built on Apr 18 2014 18: 15: 44
    Writing library : libebml v1.3.0 + libmatroska v1.4.1
    Video
    ID : 1
    Format : AVC
    Format/Info : Advanced Video Codec
    Format profile : High@L4
    Format settings : CABAC/5 Ref Frames
    Format settings, CABAC : Yes
    Format settings, ReFrames : 5 frames
    Codec ID : V_MPEG4/ISO/AVC
    Duration : 1 h 49 min
    Bit rate : 4 474 kb/s
    Width : 1 920 pixels
    Height : 858 pixels
    Display aspect ratio : 2.25: 1
    Frame rate mode : Constant
    Frame rate : 24.000 FPS
    Color space : YUV
    Chroma subsampling : 4: 2: 0
    Bit depth : 8 bits
    Scan type : Progressive
    Bits/(Pixel*Frame) : 0.113
    Stream size : 3.44 GiB (90%)
    Title : JIM_PUGOFFKA_2018_WEB_DL_1080p-BLUEBIRD
    Language : English
    Default : Yes
    Forced : No
    Color range : Limited
    Color primaries : BT.709
    Transfer characteristics : BT.709
    Matrix coefficients : BT.709
    Audio
    ID : 2
    Format : AC-3
    Format/Info : Audio Coding 3
    Commercial name : Dolby Digital
    Codec ID : A_AC3
    Duration : 1 h 49 min
    Bit rate mode : Constant
    Bit rate : 384 kb/s
    Channel(s) : 6 channels
    Channel layout : L R C LFE Ls Rs
    Sampling rate : 48.0 kHz
    Frame rate : 31.250 FPS (1536 SPF)
    Bit depth : 16 bits
    Compression mode : Lossy
    Stream size : 302 MiB (8%)
    Title : DUB DD 5.1 @ 384 kbps (iTunes)
    Language : Russian
    Service kind : Complete Main
    Default : Yes
    Forced : No
    Menu
    00: 00: 00.000 : en: Глава 1
    00: 07: 25.000 : en: Глава 2
    00: 14: 46.625 : en: Глава 3
    00: 22: 24.625 : en: Глава 4
    00: 29: 54.666 : en: Глава 5
    00: 37: 11.832 : en: Глава 6
    00: 44: 42.582 : en: Глава 7
    00: 52: 54.957 : en: Глава 8
    01: 00: 12.665 : en: Глава 9
    01: 07: 38.331 : en: Глава 10
    01: 14: 55.747 : en: Глава 11
    01: 22: 35.497 : en: Глава 12
    01: 30: 17.497 : en: Глава 13
    01: 37: 39.538 : en: Глава 14

    Скриншоты для ознакомления



    Все одноименные релизы в Клубе
    Время раздачи: 24/7 (до появления первых 3-5 скачавших)


    Онлайн видео Джим Пуговка и машинист Лукас



    Джим Пуговка и машинист Лукас/Jim Knopf und Lukas der Lokomotivfuhrer (2018) WEB-DL [H.264/1080p-LQ]
    Рейтинг →
     (голосов: 1, оценка 5/5, голосовать можно 1 раз )

    Другие торренты по теме:

  • Джим Пуговка и машинист Лукас / Jim Knopf und Lukas der Lokomotivfuhrer (2018) WEB-DLRip [Line, AD]
  • Джим Пуговка и машинист Лукас / Jim Knopf und Lukas der Lokomotivfuhrer (2018) WEB-DL [H.264 / 720p-LQ]
  • Джим Пуговка и машинист Лукас / Jim Knopf und Lukas der Lokomotivfuhrer (2018) WEB-DLRip [576p] iPad
  • Джим Пуговка и машинист Лукас / Jim Knopf und Lukas der Lokomotivfuhrer (2018) WEB-DL [1080p] ATV
  • Джим Пуговка и машинист Лукас / Jim Knopf und Lukas der Lokomotivführer (2018) WEB-DL [720p] ATV


    • Комментарии (0):

      Информация

      Информация

        Посетители, находящиеся в группе Гости, не могут оставлять комментарии в данной новости.

        ↓ Меню




        ↓ Опрос

        Вы добавили сайт в закладки?
        Да
        Нет


        Top 10 за месяц (Фильмы)