.
Авторизация | Регистрация
Хочешь лучшие торренты? Добавь свой email!
Добавить

Торрент скачать бесплатно

  • support: webmaster@btracker.club
» » Мотылек / Papillon (2017) WEB-DLRip [H.264 / 1080p-LQ] [MVO, AD] торрент скачать бесплатно


    Мотылек / Papillon (2017) WEB-DLRip [H.264 / 1080p-LQ] [MVO, AD] торрент скачать бесплатно

    Опубликовал: fregat | Дата: 2-11-2018, 05:00 | .torrent скачали: 0

    Мотылек / Papillon (2017) WEB-DLRip [H.264 / 1080p-LQ] [MVO, AD]Производство: Чехия, Испания, США, Czech Anglo Productions, FishCorb Films, Red Granite Pictures
    Жанр: Триллер, Драма, Криминал, Детектив
    Режиссер: Михаэль Ноер
    Продюсер: Рэм Бергман, Роджер Корби, Дэвид Коплан

    Актеры
    Чарли Ханнэм, Рами Малек, Томми Флэнаган, Ив Хьюсон, Роланд Мёллер, Нина Сеникар, Майкл Сока, Кристофер Фэйрбэнк, Йорик ван Вагенинген, Йоэль Басман

    Описание

    Авантюрист по прозвищу Мотылек получает пожизненный срок в тюрьме для особо опасных преступников — за убийство, которого он не совершал. Когда вокруг враги, а надежда угасает с каждым днём заключения, лишь сила духа может помочь Мотыльку обрести свободу.

    Возраст: 18+ (зрителям, достигшим 18 лет. запрещено для детей)
    Рейтинг MPAA: R (лицам до 17 лет обязательно присутствие взрослого)
    Дата мировой премьеры: 7 сентября 2017
    Дата российской премьеры: 27 сентября 2018, MEGOGO Distribution
    Продолжительность: 02: 12: 55
    Качество видео: WEB-DLRip
    Перевод: Многоголосый закадровый (MUZOBOZ)
    Субтитры: Отсутствуют
    Реклама: Присутствуют текстовые вставки рекламы
    Видео: AVC/H.264, 1916x800 (2.40: 1), 5477 kbps, 23.976 fps
    Аудио: АС3, 2 ch, 48 kHz, 384 Kbps | Русский
    Общее
    Уникальный идентификатор : 202651885691191290371254322880404243184 (0x9875555FDB89C1778D54B3604EEBC2F0)
    Полное имя : D: Мотылек.2017.WEB-DLRip.1080p.NNMClub.mkv
    Формат : Matroska
    Версия формата : Version 4
    Размер файла : 5, 44 Гбайт
    Продолжительность : 2 ч. 12 м.
    Режим общего битрейта : Переменный
    Общий поток : 5863 Кбит/сек
    Дата кодирования : UTC 2018-11-01 16: 19: 03
    Программа кодирования : mkvmerge v8.3.0 ('Over the Horizon') 64bit
    Библиотека кодирования : libebml v1.3.1 + libmatroska v1.4.2
    Видео
    Идентификатор : 2
    Формат : AVC
    Формат/Информация : Advanced Video Codec
    Профиль формата : High@L4.1
    Настройки формата : CABAC/4 Ref Frames
    Параметр CABAC формата : Да
    Параметр RefFrames формата : 4 кадра
    Идентификатор кодека : V_MPEG4/ISO/AVC
    Продолжительность : 2 ч. 12 м.
    Вид битрейта : Переменный
    Битрейт : 5477 Кбит/сек
    Максимальный битрейт : 6200 Кбит/сек
    Ширина : 1916 пикселей
    Высота : 800 пикселей
    Соотношение сторон : 2, 40: 1
    Режим частоты кадров : Постоянный
    Частота кадров : 23, 976 (24000/1001) кадра/сек
    Стандарт вещания : Component
    Цветовое пространство : YUV
    Субдискретизация насыщенности : 4: 2: 0
    Битовая глубина : 8 бит
    Тип развёртки : Прогрессивная
    Бит/(Пиксели*Кадры) : 0.149
    Размер потока : 5, 08 Гбайт (93%)
    Язык : Russian
    Default : Да
    Forced : Нет
    Цветовой диапазон : Limited
    Основные цвета : BT.709
    Характеристики трансфера : BT.709
    Коэффициенты матрицы : BT.709
    Аудио
    Идентификатор : 1
    Формат : AC-3
    Формат/Информация : Audio Coding 3
    Коммерческое название : Dolby Digital
    Идентификатор кодека : A_AC3
    Продолжительность : 2 ч. 12 м.
    Вид битрейта : Постоянный
    Битрейт : 384 Кбит/сек
    Каналы : 2 канала
    Channel layout : L R
    Частота : 48, 0 КГц
    Частота кадров : 31, 250 кадров/сек (1536 SPF)
    Битовая глубина : 16 бит
    Метод сжатия : С потерями
    Размер потока : 365 Мбайт (7%)
    Язык : English
    ServiceKind/String : Complete Main
    Default : Да
    Forced : Нет

    Скриншоты для ознакомления



    Все одноименные релизы в Клубе
    Время раздачи: 24/7 (до появления первых 3-5 скачавших)


    Онлайн видео Мотылек



    Мотылек/Papillon (2017) WEB-DLRip [H.264/1080p-LQ] [MVO, AD]
    Рейтинг →
     (голосов: 1, оценка 5/5, голосовать можно 1 раз )

    Другие торренты по теме:

  • Мотылек / Papillon (1973) BDRip скачать через торрент бесплатно
  • Мотылек / Papillon (1973) BDRemux [H.264 / 1080p] скачать через торрент бесплатно
  • Мотылек / Papillon (1973) BDRip [H.264]
  • Мотылек / Papillon (2017) CamRip [AD]
  • Мотылек / Papillon (1973) BDRip [1080p] ATV
  • Мотылек / Papillon (2017) BDRemux [H.264 / 1080p] [EN / EN, Sp Sub]
  • Мотылек / Papillon (2017) BDRip [H.264 / 1080p] [MVO]


    • Комментарии (0):

      Информация

      Информация

        Посетители, находящиеся в группе Гости, не могут оставлять комментарии в данной новости.

        ↓ Меню




        ↓ Опрос

        Вы добавили сайт в закладки?
        Да
        Нет


        Top 10 за месяц (Фильмы)