.
Авторизация | Регистрация
Хочешь лучшие торренты? Добавь свой email!
Добавить

Торрент скачать бесплатно

  • support: webmaster@btracker.club
» » Наездник / The Rider (2017) WEB-DLRip торрент скачать бесплатно


    Наездник / The Rider (2017) WEB-DLRip торрент скачать бесплатно

    Опубликовал: fregat | Дата: 2-11-2018, 05:00 | .torrent скачали: 0

    Наездник / The Rider (2017) WEB-DLRipПроизводство: США, Caviar, Highwayman Films
    Жанр: Драма, Вестерн
    Режиссер: Хлоя Чжао

    Актеры
    Брэйди Жандро, Муни, Тим Жандро, Лилли Жандро, Лерой Поюрьер, Кэт Клиффорд, Таннер Лангдо, Джеймс Калун, Лейн Скотт, Кэмерон Райт, Джордон Слик Фелпс, Донни Вайвинд Хорс, Терри Даун Поюрьер, Аллен Редди, Грег Барбер, Кевин Хантер, Маршал Бирн, Френк Стил

    Описание

    Восходящая звезда родео и талантливый дрессировщик лошадей, молодой ковбой Брэди вынужден оставить карьеру после серьёзной травмы головы. Вернувшись домой в индейскую резервацию Пайн-Ридж, он не видит никаких альтернатив своей прежней жизни. Тогда Брэди решает найти новую идентичность, а также понять, каково это — быть простым человеком в самом сердце Америки.

    Рейтинг MPAA: R (лицам до 17 лет обязательно присутствие взрослого)
    Дата мировой премьеры: 20 мая 2017
    Дата российской премьеры: 1
    Дата выхода DVD/Blu-ray релиза: 10 сентября 2018, Sony Pictures Home Entertainment
    Продолжительность: 01: 42: 59
    Качество видео: WEB-DLRip
    Перевод: Многоголосый закадровый, профессиональный (iTunes )
    Субтитры: Русские, английские - отдельным файлом
    Видео: Xvid, 720х304, ~1177 Kbps
    Аудио #1: AC3, 6 ch, 384 Kbps | русский, многоголосый закадровый
    Аудио #2: AC3, 6 ch, 384 Kbps | английский

    Общее
    Полное имя : C: UsersUserDesktopNNMClubThe.Rider.2017.WEBDLRip.iTunes.RUSThe.Rider.2017.WEBDLRip.iTunes.RUS-ylnian.avi
    Формат : AVI
    Формат/Информация : Audio Video Interleave
    Размер файла : 1, 46 Гбайт
    Продолжительность : 1 ч. 42 м.
    Общий поток : 2037 Кбит/сек
    Программа кодирования : VirtualDubMod 1.5.10.3 |www.virtualdub-fr.org|| (build 2550/release)
    Библиотека кодирования : VirtualDubMod build 2550/release
    Видео
    Идентификатор : 0
    Формат : MPEG-4 Visual
    Профиль формата : Advanced Simple@L5
    Настройки формата : BVOP1/Custom Matrix
    Параметр BVOP формата : 1
    Параметр QPel формата : Нет
    Параметр GMC формата : Без точки перехода
    Параметр матрицы формата : Выборочная
    Идентификатор кодека : XVID
    Идентификатор кодека/Подсказка : XviD
    Продолжительность : 1 ч. 42 м.
    Битрейт : 1177 Кбит/сек
    Ширина : 720 пикселей
    Высота : 304 пикселя
    Соотношение сторон : 2, 35: 1
    Частота кадров : 23, 976 (24000/1001) кадра/сек
    Цветовое пространство : YUV
    Субдискретизация насыщенности : 4: 2: 0
    Битовая глубина : 8 бит
    Тип развёртки : Прогрессивная
    Метод сжатия : С потерями
    Бит/(Пиксели*Кадры) : 0.224
    Размер потока : 867 Мбайт (58%)
    Библиотека кодирования : XviD 67
    Аудио #1
    Идентификатор : 1
    Формат : AC-3
    Формат/Информация : Audio Coding 3
    Коммерческое название : Dolby Digital
    Идентификатор кодека : 2000
    Продолжительность : 1 ч. 42 м.
    Вид битрейта : Постоянный
    Битрейт : 384 Кбит/сек
    Каналы : 6 каналов
    Channel layout : L R C LFE Ls Rs
    Частота : 48, 0 КГц
    Частота кадров : 31, 250 кадров/сек (1536 SPF)
    Битовая глубина : 16 бит
    Метод сжатия : С потерями
    Размер потока : 283 Мбайт (19%)
    Выравнивание : Разделение по промежуткам
    Заголовок : RUS - MVO - iTunes
    ServiceKind/String : Complete Main
    Аудио #2
    Идентификатор : 2
    Формат : AC-3
    Формат/Информация : Audio Coding 3
    Коммерческое название : Dolby Digital
    Идентификатор кодека : 2000
    Продолжительность : 1 ч. 42 м.
    Вид битрейта : Постоянный
    Битрейт : 384 Кбит/сек
    Каналы : 6 каналов
    Channel layout : L R C LFE Ls Rs
    Частота : 48, 0 КГц
    Частота кадров : 31, 250 кадров/сек (1536 SPF)
    Битовая глубина : 16 бит
    Метод сжатия : С потерями
    Размер потока : 283 Мбайт (19%)
    Выравнивание : Разделение по промежуткам
    Заголовок : Original
    ServiceKind/String : Complete Main

    Скриншоты для ознакомления



    Все одноименные релизы в Клубе
    Время раздачи: 24/7 (до появления первых 3-5 скачавших)


    Онлайн видео Наездник



    Наездник/The Rider (2017) WEB-DLRip
    Рейтинг →
     (голосов: 1, оценка 5/5, голосовать можно 1 раз )

    Другие торренты по теме:

  • Штормовой наездник / Storm Rider (2013) BDRip [720p] [EN]
  • Наездник / The Rider (2017) WEBRip [H.264] [MVO] [AD]
  • Наездник / The Rider (2017) WEB-DL [1080p] ATV (DVO)
  • Наездник / The Rider (2017) WEB-DL [H.264 / 1080p-LQ]


    • Комментарии (0):

      Информация

      Информация

        Посетители, находящиеся в группе Гости, не могут оставлять комментарии в данной новости.

        ↓ Меню




        ↓ Опрос

        Вы добавили сайт в закладки?
        Да
        Нет


        Top 10 за месяц (Фильмы)