.
Авторизация | Регистрация
Хочешь лучшие торренты? Добавь свой email!
Добавить

Торрент скачать бесплатно

  • support: webmaster@btracker.club
» » Вечер с Беверли Лафф Линн / An Evening with Beverly Luff Linn (2018) WEB-DL [MVO] торрент скачать бесплатно


    Вечер с Беверли Лафф Линн / An Evening with Beverly Luff Linn (2018) WEB-DL [MVO] торрент скачать бесплатно

    Опубликовал: fregat | Дата: 2-11-2018, 05:00 | .torrent скачали: 0

    Вечер с Беверли Лафф Линн / An Evening with Beverly Luff Linn (2018) WEB-DL [MVO]Производство: Великобритания, США
    Жанр: Комедия, Криминал
    Режиссер: Джим Хоскин
    Продюсер: Сэм Бисби, Теодора Данлэп, Эмили Лео

    Актеры
    Обри Плаза, Джемейн Клемент, Эмиль Хирш, Крэйг Робинсон, Мэтт Берри, Мария Бэмфорд, Майкл Коэн, Скай Элобар, Джакоб Уайсоки, Зак Черри и др.

    Описание

    Лулу – молодая, привлекательная девушка, абсолютно недовольная своей жизнью. На работе её преследуют вечные проблемы. Дома с некогда безумно любимым мужем в последнее время серьёзный разлад. Так бы всё и продолжалось в жизни Лулу, если бы не реклама нового телешоу. Во время просмотра рекламы девушка узнаёт телеведущего. Ей кажется, что они были знакомы ещё до замужества. В тот же момент Лулу решает встретиться с телеведущим. Она готова на всё, лишь бы провести с ним ночь. Она бросит мужа, бросит семью, дом и работу, но обязательно отыщет ведущего и переспит с ним. Но стоит ли идти на такие жертвы ради одной ночи?

    Дата мировой премьеры: 20 января 2018
    Дата российской премьеры: 25 апреля 2019, ПРОвзгляд
    Продолжительность: 01: 48: 08
    Качество видео: WEB-DL
    Перевод: Многоголосый закадровый, любительский
    Озвучка/Автор перевода: HiWayGrope
    Субтитры: Отсутствуют
    Видео: Xvid, 720x384, ~1542 Kbps
    Аудио 1: MP3, 2 ch, 192 Kbps | русский
    Аудио 2: AC3, 6 ch, 384 Kbps | английский

    Общее
    Полное имя : D: FILMЬlAn Evening with Beverly Luff Linn.2018.avi
    Формат : AVI
    Формат/Информация : Audio Video Interleave
    Профиль формата : OpenDML
    Настройки формата : rec
    Размер файла : 1, 60 Гбайт
    Продолжительность : 1 ч. 48 м.
    Общий поток : 2124 Кбит/сек
    Программа кодирования : AVI-Mux GUI 1.17.8, Aug 30 2008 12: 36: 58
    Видео
    Идентификатор : 0
    Формат : MPEG-4 Visual
    Профиль формата : Simple@L5
    Параметр BVOP формата : Нет
    Параметр QPel формата : Нет
    Параметр GMC формата : Без точки перехода
    Параметр матрицы формата : Default (H.263)
    Идентификатор кодека : XVID
    Идентификатор кодека/Подсказка : XviD
    Продолжительность : 1 ч. 48 м.
    Битрейт : 1542 Кбит/сек
    Ширина : 720 пикселей
    Высота : 384 пикселя
    Соотношение сторон : 1, 85: 1
    Частота кадров : 23, 976 (24000/1001) кадра/сек
    Цветовое пространство : YUV
    Субдискретизация насыщенности : 4: 2: 0
    Битовая глубина : 8 бит
    Тип развёртки : Прогрессивная
    Метод сжатия : С потерями
    Бит/(Пиксели*Кадры) : 0.233
    Размер потока : 1, 16 Гбайт (73%)
    Библиотека кодирования : Lavc58.1.100
    Аудио #1
    Идентификатор : 1
    Формат : MPEG Audio
    Версия формата : Version 1
    Профиль формата : Layer 3
    Настройки формата : Joint stereo/MS Stereo
    Идентификатор кодека : 55
    Идентификатор кодека/Подсказка : MP3
    Продолжительность : 1 ч. 48 м.
    Вид битрейта : Постоянный
    Битрейт : 192 Кбит/сек
    Каналы : 2 канала
    Частота : 48, 0 КГц
    Частота кадров : 41, 667 кадра/сек (1152 SPF)
    Метод сжатия : С потерями
    Размер потока : 149 Мбайт (9%)
    Выравнивание : Соединение по промежуткам
    Продолжительность промежутка : 413 мс. (9, 90 видеокадров)
    Время предзагрузки промежутка : 216 мс.
    Библиотека кодирования : LAME3.100
    Настройки программы : -m j -V 4 -q 3 -lowpass 18.6 -b 192
    Аудио #2
    Идентификатор : 2
    Формат : AC-3
    Формат/Информация : Audio Coding 3
    Идентификатор кодека : 2000
    Продолжительность : 1 ч. 48 м.
    Вид битрейта : Постоянный
    Битрейт : 384 Кбит/сек
    Каналы : 6 каналов
    Расположение каналов : Front: L C R, Side: L R, LFE
    Частота : 48, 0 КГц
    Частота кадров : 31, 250 кадров/сек (1536 SPF)
    Битовая глубина : 16 бит
    Метод сжатия : С потерями
    Размер потока : 297 Мбайт (18%)
    Выравнивание : Соединение по промежуткам
    Продолжительность промежутка : 64 мс. (1, 53 видеокадра)
    Время предзагрузки промежутка : 192 мс.
    ServiceKind/String : Complete Main

    Скриншоты для ознакомления



    Все одноименные релизы в Клубе
    Время раздачи: С 09: 00 до 23: 30 (до появления первых 3-5 скачавших)


    Онлайн видео Вечер с Беверли Лафф Линн



    Вечер с Беверли Лафф Линн/An Evening with Beverly Luff Linn (2018) WEB-DL [MVO]
    Рейтинг →
     (голосов: 1, оценка 3/5, голосовать можно 1 раз )

    Другие торренты по теме:

  • Вечер с Беверли Лафф Линн / An Evening with Beverly Luff Linn (2018) BDRemux [H.264 / 1080p] [EN / EN Sub]


    • Комментарии (0):

      Информация

      Информация

        Посетители, находящиеся в группе Гости, не могут оставлять комментарии в данной новости.

        ↓ Меню




        ↓ Опрос

        Вы добавили сайт в закладки?
        Да
        Нет


        Top 10 за месяц (Фильмы)