.
Авторизация | Регистрация
Хочешь лучшие торренты? Добавь свой email!
Добавить

Торрент скачать бесплатно

  • support: webmaster@btracker.club
» » Красотка на всю голову / I Feel Pretty (2018) BDRip [H.264 / 720p] торрент скачать бесплатно


    Красотка на всю голову / I Feel Pretty (2018) BDRip [H.264 / 720p] торрент скачать бесплатно

    Опубликовал: fregat | Дата: 2-11-2018, 05:00 | .torrent скачали: 0

    Красотка на всю голову / I Feel Pretty (2018) BDRip [H.264 / 720p]Производство: Китай, США/Huayi Brothers Pictures, Voltage Pictures, Wonderland Sound and Vision
    Жанр: Комедия
    Режиссер: Эбби Кон, Марк Силверштейн

    Актеры
    Эми Шумер, Мишель Уильямс, Том Хоппер, Рори Сковел, Адриан Мартинес, Эмили Ратажковски, Эйди Брайант, Бизи Филиппс, Лорен Хаттон, Сашир Замата

    Описание

    Ее жизнь состояла из вечных попыток сесть на диету или заняться фитнесом. Попытка засчитана, — подумала Вселенная и скинула бедняжку с велотренажера. Девушка ударяется головой и обретает аномальную уверенность в том, что теперь она просто неотразима. Одна проблема — в глазах других людей она ни капли не изменилась. В общем, красотка на всю голову.

    Возраст: 16+ (зрителям, достигшим 16 лет)
    Рейтинг MPAA: PG-13 (детям до 13 лет просмотр нежелателен)
    Дата мировой премьеры: 19 апреля 2018
    Дата премьеры в России: 7 июня 2018

    Релиз от: k.e.n MegaPeer
    Продолжительность: 01: 50: 58
    Качество видео: BDRip 720p
    Перевод: Дублированный
    Субтитры: Английские
    Видео: AVC, 1280x534 (2.35: 1), 23.976 fps, 4 744 Kbps (0.289 bit/pixel)
    Аудио #1: AC-3, 48.0 KHz, 6 ch, 384 Kbps, CBR (Russian)
    Аудио #2: AC-3, 48.0 KHz, 6 ch, 448 Kbps, CBR (English)

    Полное имя : D: ФИЛЬМЫКрасотка на всю голову.2018 ( Э.Шумер, М.Уильямс).k.e.n MegaPeer.mkv
    Формат : Matroska
    Версия формата : Version 2
    Размер файла : 4, 32 Гбайт
    Продолжительность : 1 ч. 51 м.
    Общий поток : 5577 Кбит/сек
    Название фильма : I Feel Pretty 2018
    Дата кодирования : UTC 2018-10-12 03: 12: 58
    Программа кодирования : mkvmerge v5.3.0 ('I could have danced') built on Feb 9 2012 10: 38: 07
    Библиотека кодирования : libebml v1.2.3 + libmatroska v1.3.0
    Attachments : poster.png
    Видео
    Идентификатор : 1
    Формат : AVC
    Формат/Информация : Advanced Video Codec
    Профиль формата : High@L4.1
    Параметр CABAC формата : Да
    Параметр ReFrames формата : 11 кадров
    Идентификатор кодека : V_MPEG4/ISO/AVC
    Продолжительность : 1 ч. 51 м.
    Битрейт : 4744 Кбит/сек
    Ширина : 1280 пикселей
    Высота : 534 пикселя
    Соотношение сторон : 2, 40: 1
    Режим частоты кадров : Постоянный
    Частота кадров : 23, 976 (24000/1001) кадра/сек
    Цветовое пространство : YUV
    Субдискретизация насыщенности : 4: 2: 0
    Битовая глубина : 8 бит
    Тип развёртки : Прогрессивная
    Бит/(Пиксели*Кадры) : 0.289
    Размер потока : 3, 59 Гбайт (83%)
    Библиотека кодирования : x264 core 146 r2538 121396c
    Настройки программы : cabac=1/ref=11/deblock=1: -3: -3/analyse=0x3: 0x133/me=umh/subme=11/psy=1/psy_rd=1.00: 0.00/mixed_ref=1/me_range=32/chroma_me=1/trellis=2/8x8dct=1/cqm=0/deadzone=21, 11/fast_pskip=0/chroma_qp_offset=-2/threads=12/lookahead_threads=2/sliced_threads=0/nr=0/decimate=0/interlaced=0/bluray_compat=0/constrained_intra=0/bframes=11/b_pyramid=2/b_adapt=2/b_bias=0/direct=3/weightb=1/open_gop=0/weightp=2/keyint=240/keyint_min=23/scenecut=40/intra_refresh=0/rc=2pass/mbtree=0/bitrate=4744/ratetol=1.0/qcomp=0.60/qpmin=0/qpmax=69/qpstep=4/cplxblur=20.0/qblur=0.5/ip_ratio=1.40/pb_ratio=1.30/aq=1: 0.90
    Язык : English
    Default : Да
    Forced : Нет
    Аудио #1
    Идентификатор : 2
    Формат : AC-3
    Формат/Информация : Audio Coding 3
    Расширение режима : CM (complete main)
    Параметр Endianness формата : Big
    Идентификатор кодека : A_AC3
    Продолжительность : 1 ч. 51 м.
    Вид битрейта : Постоянный
    Битрейт : 384 Кбит/сек
    Каналы : 6 каналов
    Расположение каналов : Front: L C R, Side: L R, LFE
    Частота : 48, 0 КГц
    Частота кадров : 31, 250 кадров/сек (1536 spf)
    Битовая глубина : 16 бит
    Метод сжатия : С потерями
    Размер потока : 305 Мбайт (7%)
    Заголовок : iTunes
    Язык : Russian
    Default : Да
    Forced : Да
    Аудио #2
    Идентификатор : 3
    Формат : AC-3
    Формат/Информация : Audio Coding 3
    Расширение режима : CM (complete main)
    Параметр Endianness формата : Big
    Идентификатор кодека : A_AC3
    Продолжительность : 1 ч. 51 м.
    Вид битрейта : Постоянный
    Битрейт : 448 Кбит/сек
    Каналы : 6 каналов
    Расположение каналов : Front: L C R, Side: L R, LFE
    Частота : 48, 0 КГц
    Частота кадров : 31, 250 кадров/сек (1536 spf)
    Битовая глубина : 16 бит
    Метод сжатия : С потерями
    Размер потока : 356 Мбайт (8%)
    Заголовок : Original
    Язык : English
    Default : Нет
    Forced : Нет
    Текст
    Идентификатор : 4
    Формат : UTF-8
    Идентификатор кодека : S_TEXT/UTF8
    Идентификатор кодека/Информация : UTF-8 Plain Text
    Язык : English
    Default : Нет
    Forced : Нет
    Меню
    00: 00: 00.000 : en: Chapter 1
    00: 07: 30.658 : en: Chapter 2
    00: 13: 31.185 : en: Chapter 3
    00: 20: 21.845 : en: Chapter 4
    00: 25: 49.130 : en: Chapter 5
    00: 30: 03.384 : en: Chapter 6
    00: 34: 31.194 : en: Chapter 7
    00: 38: 47.491 : en: Chapter 8
    00: 44: 13.734 : en: Chapter 9
    00: 47: 59.251 : en: Chapter 10
    00: 53: 46.306 : en: Chapter 11
    00: 58: 07.525 : en: Chapter 12
    01: 04: 03.589 : en: Chapter 13
    01: 11: 54.310 : en: Chapter 14
    01: 19: 13.415 : en: Chapter 15
    01: 27: 14.062 : en: Chapter 16
    01: 31: 33.154 : en: Chapter 17
    01: 37: 00.564 : en: Chapter 18
    01: 44: 10.786 : en: Chapter 19
    01: 46: 17.579 : en: Chapter 20

    Скриншоты для ознакомления



    Все одноименные релизы в Клубе Время раздачи: 24/7 (до появления первых 3-5 скачавших)


    Онлайн видео Красотка на всю голову



    Красотка на всю голову/I Feel Pretty (2018) BDRip [H.264/720p]
    Рейтинг →
     (голосов: 1, оценка 4/5, голосовать можно 1 раз )

    Другие торренты по теме:

  • Красотка на всю голову / I Feel Pretty (2018) BDRip [H.264]
  • Красотка на всю голову / I Feel Pretty (2018) BDRemux [H.264 / 1080p] [EN / EN, Sp Sub]
  • Красотка на всю голову / I Feel Pretty (2018) BDRip [720p] ATV


    • Комментарии (0):

      Информация

      Информация

        Посетители, находящиеся в группе Гости, не могут оставлять комментарии в данной новости.

        ↓ Меню




        ↓ Опрос

        Вы добавили сайт в закладки?
        Да
        Нет


        Top 10 за месяц (Фильмы)