.
Авторизация | Регистрация
Хочешь лучшие торренты? Добавь свой email!
Добавить

Торрент скачать бесплатно

  • support: webmaster@btracker.club
» » Любовник моей жены / Amoureux de ma femme (2018) CamRip [H.264 / 720p-LQ] [AD] торрент скачать бесплатно


    Любовник моей жены / Amoureux de ma femme (2018) CamRip [H.264 / 720p-LQ] [AD] торрент скачать бесплатно

    Опубликовал: family5sort | Дата: 1-11-2018, 12:10 | .torrent скачали: 1

    Любовник моей жены / Amoureux de ma femme (2018) CamRip [H.264 / 720p-LQ] [AD]Производство: Франция, Бельгия/Curiosa Films, France 3 Cinéma, Zack Films
    Жанр: Драма, Мелодрама, Комедия
    Режиссер: Даниель Отой

    Актеры
    Сандрин Киберлэн, Адриана Угарте, Жерар Депардье, Даниель Отой, Бриджитт Обри, Джон Сехил

    Описание

    Даниэль очень любит свою жену и наслаждается семейным уютом, но все рушится в один прекрасный день, когда лучший друг Патрик настаивает на парном ужине, на который приводит свою новую девушку. Эмма оказывается молодой красавицей и сразу покоряет нашего героя. И вот он уже не видит перед собой: ни друга, ни обеденного стола, не слышит разговор и полностью окунается в мир собственных фантазий, где видит только ее карие глаза, соблазнительную улыбку и плавные волнующие изгибы.

    Возраст: 18+ (зрителям, достигшим 18 лет. запрещено для детей)
    Дата мировой премьеры: 25 апреля 2018
    Дата российской премьеры: 4 октября 2018, Ten Letters
    Дата выхода DVD/Blu-ray релиза: 6 ноября 2018, Ten Letters
    Продолжительность: 01: 15: 34
    Качество видео: CamRip
    Перевод: Дублированный
    Субтитры: Отсутствуют
    Реклама: Присутствуют вставки текстовой, аудио и видео рекламы
    Видео: AVC/H.264, 1280х536, ~3659 Kbps
    Аудио: AC3, 2 ch, 384 Kbps

    Общее
    Уникальный идентификатор : 175634376120080303605530020667528266417 (0x8421F34EF1B8E1B5B2C64053525742B1)
    Полное имя : C: UsersUserDownloadsLuBoFFnik.Moey.Jeni.2O18.D.TS.72Op_KOSHARA.mkv
    Формат : Matroska
    Версия формата : Version 2
    Размер файла : 2, 13 Гбайт
    Продолжительность : 1 ч. 15 м.
    Режим общего битрейта : Переменный
    Общий поток : 4045 Кбит/сек
    Дата кодирования : UTC 2018-10-08 08: 15: 26
    Программа кодирования : mkvmerge v8.3.0 ('Over the Horizon') 64bit
    Библиотека кодирования : libebml v1.3.1 + libmatroska v1.4.2
    Видео
    Идентификатор : 1
    Формат : AVC
    Формат/Информация : Advanced Video Codec
    Профиль формата : High@L4.1
    Настройки формата : CABAC/4 Ref Frames
    Параметр CABAC формата : Да
    Параметр RefFrames формата : 4 кадра
    Идентификатор кодека : V_MPEG4/ISO/AVC
    Продолжительность : 1 ч. 15 м.
    Вид битрейта : Переменный
    Битрейт : 3659 Кбит/сек
    Максимальный битрейт : 4000 Кбит/сек
    Ширина : 1280 пикселей
    Высота : 536 пикселей
    Соотношение сторон : 2, 40: 1
    Режим частоты кадров : Постоянный
    Частота кадров : 23, 976 (24000/1001) кадра/сек
    Стандарт вещания : Component
    Цветовое пространство : YUV
    Субдискретизация насыщенности : 4: 2: 0
    Битовая глубина : 8 бит
    Тип развёртки : Прогрессивная
    Бит/(Пиксели*Кадры) : 0.222
    Размер потока : 1, 93 Гбайт (90%)
    Default : Да
    Forced : Нет
    Цветовой диапазон : Limited
    Основные цвета : BT.709
    Характеристики трансфера : BT.709
    Коэффициенты матрицы : BT.709
    Аудио
    Идентификатор : 2
    Формат : AC-3
    Формат/Информация : Audio Coding 3
    Коммерческое название : Dolby Digital
    Идентификатор кодека : A_AC3
    Продолжительность : 1 ч. 15 м.
    Вид битрейта : Постоянный
    Битрейт : 384 Кбит/сек
    Каналы : 2 канала
    Channel layout : L R
    Частота : 48, 0 КГц
    Частота кадров : 31, 250 кадров/сек (1536 SPF)
    Битовая глубина : 16 бит
    Метод сжатия : С потерями
    Размер потока : 208 Мбайт (9%)
    ServiceKind/String : Complete Main
    Default : Да
    Forced : Нет

    Скриншоты для ознакомления



    Все одноименные релизы в Клубе
    Время раздачи: 24/7 (до появления первых 3-5 скачавших)


    Онлайн видео Любовник моей жены



    Любовник моей жены/Amoureux de ma femme (2018) CamRip [H.264/720p-LQ] [AD]
    Рейтинг →
     (голосов: 1, оценка 5/5, голосовать можно 1 раз )

    Другие торренты по теме:

  • Любовник моей жены / Amoureux de ma femme (2018) BDRip [H.264]
  • Любовник моей жены / Amoureux de ma femme (2018) BDRip [H.264 / 1080p]
  • Любовник моей жены / Amoureux de ma femme (2018) BDRip [H.264 / 720p]
  • Любовник моей жены / Amoureux de ma femme (2018) BDRip [H.264]
  • Любовник моей жены / Amoureux de ma femme (2018) BDRip [1080p] ATV
  • Любовник моей жены / Amoureux de ma femme (2018) BDRip [720p] ATV
  • Любовник моей жены / Amoureux de ma femme (2018) BDRip


    • Комментарии (0):

      Информация

      Информация

        Посетители, находящиеся в группе Гости, не могут оставлять комментарии в данной новости.

        ↓ Меню




        ↓ Опрос

        Вы добавили сайт в закладки?
        Да
        Нет


        Top 10 за месяц (Фильмы)