.
Авторизация | Регистрация
Хочешь лучшие торренты? Добавь свой email!
Добавить

Торрент скачать бесплатно

  • support: webmaster@btracker.club
» » Собибор (2017) WEBRip [H.264 / 1080p] [Тизер] торрент скачать бесплатно


    Собибор (2017) WEBRip [H.264 / 1080p] [Тизер] торрент скачать бесплатно

    Опубликовал: McculloughMeincke48 | Дата: 1-11-2018, 12:00 | .torrent скачали: 14

    Собибор (2017) WEBRip [H.264 / 1080p] [Тизер]Производство: Россия
    Жанр: Военный, драма
    Режиссер: Константин Хабенский
    Продюсер: Эльмира Айнулова, Мария Журомская, Мария Михайлова

    Актеры
    Константин Хабенский, Кристофер Ламберт, Мария Кожевникова, Фелисе Янкелль, Дайнюс Казлаускас, Михалина Ольшанска, Вольфганг Черны, Филипп Рейнхардт, Дирк Мартенс, Максимилиан Дирр

    Описание

    История сопротивления человеческого духа бездушной машине уничтожения. В октябре 1943 года заключённые лагеря Собибор во главе с лейтенантом Красной Армии Александром Печерским поднимают восстание — единственное успешное восстание в нацистском лагере смерти.

    Дата российской премьеры: 26 апреля 2018, Каропрокат
    Продолжительность: 00: 00: 41
    Качество видео: WEBRip
    Перевод: Не требуется (русский)
    Субтитры: Отсутствуют
    Видео: AVC/H.264, 1920x800 (2.40: 1), ~8000 Kbps
    Аудио: AC3, 2 ch, 192 Kbps

    Общее
    Уникальный идентификатор : 30770277520334286446163236917288576350 (0x172623CFA850C5C5235C1F536A2F255E)
    Полное имя : F: Собибор (2017).mkv
    Формат : Matroska
    Версия формата : Version 4/Version 2
    Размер файла : 40, 3 Мбайт
    Продолжительность : 41 с. 500 мс.
    Общий поток : 8144 Кбит/сек
    Программа кодирования : Lavf57.71.100
    Библиотека кодирования : Lavf57.71.100
    ErrorDetectionType : Per level 1
    Видео
    Идентификатор : 1
    Формат : AVC
    Формат/Информация : Advanced Video Codec
    Профиль формата : High@L4
    Настройки формата : CABAC/5 Ref Frames
    Параметр CABAC формата : Да
    Параметр RefFrames формата : 5 кадров
    Идентификатор кодека : V_MPEG4/ISO/AVC
    Продолжительность : 41 с. 417 мс.
    Битрейт : 8000 Кбит/сек
    Ширина : 1920 пикселей
    Высота : 800 пикселей
    Соотношение сторон : 2, 40: 1
    Режим частоты кадров : Постоянный
    Частота кадров : 24, 000 кадра/сек
    Цветовое пространство : YUV
    Субдискретизация насыщенности : 4: 2: 0
    Битовая глубина : 8 бит
    Тип развёртки : Прогрессивная
    Бит/(Пиксели*Кадры) : 0.217
    Размер потока : 38, 5 Мбайт (95%)
    Библиотека кодирования : x264 core 148 r2748 97eaef2
    Настройки программы : cabac=1/ref=5/deblock=1: 0: 0/analyse=0x3: 0x133/me=umh/subme=10/psy=1/psy_rd=1.00: 0.00/mixed_ref=1/me_range=24/chroma_me=1/trellis=2/8x8dct=1/cqm=0/deadzone=21, 11/fast_pskip=1/chroma_qp_offset=-2/threads=12/lookahead_threads=2/sliced_threads=0/nr=0/decimate=1/interlaced=0/bluray_compat=0/constrained_intra=0/bframes=8/b_pyramid=2/b_adapt=2/b_bias=0/direct=3/weightb=1/open_gop=0/weightp=2/keyint=250/keyint_min=24/scenecut=40/intra_refresh=0/rc_lookahead=60/rc=2pass/mbtree=1/bitrate=8000/ratetol=1.0/qcomp=0.60/qpmin=0/qpmax=69/qpstep=4/cplxblur=20.0/qblur=0.5/ip_ratio=1.40/aq=1: 1.00
    Default : Да
    Forced : Нет
    Аудио
    Идентификатор : 2
    Формат : AC-3
    Формат/Информация : Audio Coding 3
    Параметр Endianness формата : Big
    Идентификатор кодека : A_AC3
    Продолжительность : 41 с. 447 мс.
    Вид битрейта : Постоянный
    Битрейт : 192 Кбит/сек
    Каналы : 2 канала
    Расположение каналов : Front: L R
    Частота : 44, 1 КГц
    Частота кадров : 28, 711 кадров/сек (1536 SPF)
    Битовая глубина : 16 бит
    Метод сжатия : С потерями
    Задержка видео : -83 мс.
    Размер потока : 971 Кбайт (2%)
    Язык : unknown
    ServiceKind/String : Complete Main
    Default : Да
    Forced : Нет

    Скриншоты для ознакомления



    Все одноименные релизы в Клубе
    Время раздачи: 24/7 (круглосуточно) (до появления первых 3-5 скачавших)


    Онлайн видео Собибор (2017) WEBRip [H.264



    Собибор (2017) WEBRip [H.264/1080p] [Тизер]
    Рейтинг →
     (голосов: 1, оценка 3/5, голосовать можно 1 раз )

    Другие торренты по теме:

  • Собибор. Непокоренные (2013) SATRip
  • Собибор (2018) CamRip [H.264 / 720p-LQ] [AD]
  • Собибор (2018) WEB-DLRip [H.264 / 720p-LQ] [AD]
  • Собибор (2018) WEB-DL [1080p] ATV
  • Собибор (2018) WEB-DLRip
  • Собибор (2018) WEB-DLRip [576p] iPad
  • Собибор (2018) WEB-DLRip [H.264] [MP4|1280x536]
  • Иван Беркутов | Собибор. Восстание в лагере смерти (2018) [FB2]


    • Комментарии (0):

      Информация

      Информация

        Посетители, находящиеся в группе Гости, не могут оставлять комментарии в данной новости.

        ↓ Меню




        ↓ Опрос

        Вы добавили сайт в закладки?
        Да
        Нет


        Top 10 за месяц (Фильмы)