.
Авторизация | Регистрация
Хочешь лучшие торренты? Добавь свой email!
Добавить

Торрент скачать бесплатно

  • support: webmaster@btracker.club
» » Взятка (2018) WEBRip торрент скачать бесплатно


    Взятка (2018) WEBRip торрент скачать бесплатно

    Опубликовал: drumrussia3 | Дата: 1-11-2018, 11:49 | .torrent скачали: 86

    Взятка (2018) WEBRipПроизводство: Россия/FakePublish, Life Is Short, PinUp Production
    Жанр: Короткометражный, комедия
    Режиссер: Алексей Харитонов

    Актеры
    Михаил Трухин, Сергей Бурунов, Николай Ковбас, Сергей Анненков, Александр Ревенко

    Описание

    Гражданин предлагает следователю взятку, чтобы закрыть дело… о взятке. Но события разворачиваются непредсказуемо.

    Дата российской премьеры: 4 июня 2018
    Продолжительность: 00: 12: 17
    Качество видео: WEBRip
    Перевод: Не требуется (русский)
    Субтитры: Отсутствуют
    Видео: Xvid, 720x304 (2.35: 1), ~1285 Kbps
    Аудио: AC3, 2 ch, 192 Kbps

    Общее
    Полное имя : D: Взятка (2018).avi
    Формат : AVI
    Формат/Информация : Audio Video Interleave
    Размер файла : 131 Мбайт
    Продолжительность : 12 м. 17 с.
    Общий поток : 1486 Кбит/сек
    Программа кодирования : Lavf57.41.100
    Видео
    Идентификатор : 0
    Формат : xvid
    Идентификатор кодека : xvid
    Продолжительность : 12 м. 17 с.
    Битрейт : 1284 Кбит/сек
    Ширина : 720 пикселей
    Высота : 304 пикселя
    Соотношение сторон : 2, 35: 1
    Частота кадров : 23, 976 (24000/1001) кадра/сек
    Тип развёртки : Прогрессивная
    Бит/(Пиксели*Кадры) : 0.245
    Размер потока : 113 Мбайт (86%)
    Аудио
    Идентификатор : 1
    Формат : AC-3
    Формат/Информация : Audio Coding 3
    Коммерческое название : Dolby Digital
    Идентификатор кодека : 2000
    Продолжительность : 12 м. 17 с.
    Вид битрейта : Постоянный
    Битрейт : 192 Кбит/сек
    Каналы : 2 канала
    Channel layout : L R
    Частота : 48, 0 КГц
    Частота кадров : 31, 250 кадров/сек (1536 SPF)
    Битовая глубина : 16 бит
    Метод сжатия : С потерями
    Размер потока : 16, 9 Мбайт (13%)
    Выравнивание : Соединение по промежуткам
    Продолжительность промежутка : 32 мс. (0, 77 видеокадр)
    ServiceKind/String : Complete Main

    Скриншоты для ознакомления



    Все одноименные релизы в Клубе
    Время раздачи: 24/7 (круглосуточно) (до появления первых 3-5 скачавших)


    Онлайн видео Мир Юрского периода 2



    Взятка (2018) WEBRip
    Рейтинг →
     (голосов: 1, оценка 3/5, голосовать можно 1 раз )

    Другие торренты по теме:

  • Взятка. Из блокнота журналиста В.Цветкова (1983) SATRip скачать через торрент бесплатно


    • Комментарии (0):

      Информация

      Информация

        Посетители, находящиеся в группе Гости, не могут оставлять комментарии в данной новости.

        ↓ Меню




        ↓ Опрос

        Вы добавили сайт в закладки?
        Да
        Нет


        Top 10 за месяц (Фильмы)