.
Авторизация | Регистрация
Хочешь лучшие торренты? Добавь свой email!
Добавить

Торрент скачать бесплатно

  • support: webmaster@btracker.club
» » Прошу поверить мне на слово (2015) WEB-DLRip [H.264 / 1080p-LQ] (сезон 1, серии 1-4 из 4) торрент скачать бесплатно


    Прошу поверить мне на слово (2015) WEB-DLRip [H.264 / 1080p-LQ] (сезон 1, серии 1-4 из 4) торрент скачать бесплатно

    Опубликовал: fregat | Дата: 1-11-2018, 05:00 | .torrent скачали: 0

    Прошу поверить мне на слово (2015) WEB-DLRip [H.264 / 1080p-LQ] (сезон 1, серии 1-4 из 4)Производство: Россия/Щука
    Жанр: мелодрама
    Режиссер: Феликс Герчиков

    Актеры
    Татьяна Черкасова, Алексей Барабаш, Андрей Егоров, Евгения Дмитриева, Михаил Стародубов, Ёла Санько и др.

    Описание

    Екатерина Суворова взяла на себя чужую вину. Зачем и почему? Вопрос, на который она не хочет дать ответ. Цена за такое решение слишком высока — разлука с дочерью и тяжелый путь обратно в свою жизнь.

    Возраст: 16+ (зрителям, достигшим 16 лет)
    Релиз от: Files-x
    Продолжительность: ~00: 51: 00 серия
    Качество видео: WEB-DLRip 1080p
    Видео: AVC/H.264, 1920x1080 (16: 9), ~4000 Kbps
    Аудио: АС3, 2 ch, 192 Kbps
    General
    Unique ID : 119232038521465769529496685534181706613 (0x59B3415D6E243F5645C517565B3DCB75)
    Complete name : 01.Proshu.mne.poverit.naslovo.2015.WEB-DL.1080.Files-x.mkv
    Format : Matroska
    Format version : Version 4
    File size : 1.53 GiB
    Duration : 52 min 7 s
    Overall bit rate : 4 196 kb/s
    Writing application : Lavf56.25.101
    Writing library : Lavf56.25.101
    Video
    ID : 1
    Format : AVC
    Format/Info : Advanced Video Codec
    Format profile : High@L4
    Format settings : CABAC/3 Ref Frames
    Format settings, CABAC : Yes
    Format settings, ReFrames : 3 frames
    Codec ID : V_MPEG4/ISO/AVC
    Duration : 52 min 7 s
    Bit rate : 4 000 kb/s
    Width : 1 920 pixels
    Height : 1 080 pixels
    Display aspect ratio : 16: 9
    Frame rate mode : Constant
    Frame rate : 25.000 FPS
    Color space : YUV
    Chroma subsampling : 4: 2: 0
    Bit depth : 8 bits
    Scan type : Progressive
    Bits/(Pixel*Frame) : 0.077
    Stream size : 1.43 GiB (93%)
    Writing library : x264 core 142 r2389 956c8d8
    Encoding settings : cabac=1/ref=3/deblock=1: 0: 0/analyse=0x3: 0x133/me=umh/subme=7/psy=1/psy_rd=1.00: 0.00/mixed_ref=1/me_range=32/chroma_me=1/trellis=2/8x8dct=1/cqm=0/deadzone=21, 11/fast_pskip=1/chroma_qp_offset=-2/threads=12/lookahead_threads=2/sliced_threads=0/nr=0/decimate=1/interlaced=0/bluray_compat=0/constrained_intra=0/bframes=0/weightp=0/keyint=75/keyint_min=26/scenecut=40/intra_refresh=0/rc_lookahead=50/rc=2pass/mbtree=0/bitrate=4000/ratetol=1.0/qcomp=0.20/qpmin=10/qpmax=51/qpstep=4/cplxblur=20.0/qblur=0.5/vbv_maxrate=5000/vbv_bufsize=5000/nal_hrd=none/filler=0/ip_ratio=1.40/aq=1: 1.00
    Default : Yes
    Forced : No
    Color range : Limited
    Color primaries : BT.709
    Transfer characteristics : BT.709
    Matrix coefficients : BT.709
    Audio
    ID : 2
    Format : AC-3
    Format/Info : Audio Coding 3
    Commercial name : Dolby Digital
    Codec ID : A_AC3
    Duration : 52 min 7 s
    Bit rate mode : Constant
    Bit rate : 192 kb/s
    Channel(s) : 2 channels
    Channel layout : L R
    Sampling rate : 44.1 kHz
    Frame rate : 28.711 FPS (1536 SPF)
    Bit depth : 16 bits
    Compression mode : Lossy
    Stream size : 71.6 MiB (5%)
    Service kind : Complete Main
    Default : Yes
    Forced : No

    Скриншоты для ознакомления


    Все одноименные релизы в Клубе
    Время раздачи: 24/7 (до появления первых 3-5 скачавших)


    Онлайн видео Прошу поверить мне на слово (2015) WEB-DLRip [H.264



    Прошу поверить мне на слово (2015) WEB-DLRip [H.264/1080p-LQ] (сезон 1, серии 1-4 из 4)
    Рейтинг →
     (голосов: 1, оценка 4/5, голосовать можно 1 раз )

    Другие торренты по теме:

  • Надежда Румянцева. Во всем прошу винить любовь (2010) SATRip
  • Прошу вашей руки и генов (2014) HDTVRip скачать через торрент бесплатно
  • В моей смерти прошу винить Клаву К. (1979) SATRip скачать через торрент бесплатно
  • В моей смерти прошу винить Клаву К. (1979) SATRip скачать через торрент бесплатно
  • Александр Варго | В моей смерти прошу винить...(2016) [MP3]
  • Легс Макнил, Джиллиан Маккейн | Прошу, убей меня! Подлинная история панк-рока (2012) [FB2, EPUB]
  • В моей смерти прошу винить... (2017) DVB


    • Комментарии (0):

      Информация

      Информация

        Посетители, находящиеся в группе Гости, не могут оставлять комментарии в данной новости.

        ↓ Меню




        ↓ Опрос

        Вы добавили сайт в закладки?
        Да
        Нет


        Top 10 за месяц (Фильмы)