.
Авторизация | Регистрация
Хочешь лучшие торренты? Добавь свой email!
Добавить

Торрент скачать бесплатно

  • support: webmaster@btracker.club
» » Мажор (2018) WEB-DL [H.264 / 1080p-LQ] (сезон 3, серии 1-3 из 16) (обновляемая) торрент скачать бесплатно


    Мажор (2018) WEB-DL [H.264 / 1080p-LQ] (сезон 3, серии 1-3 из 16) (обновляемая) торрент скачать бесплатно

    Опубликовал: fregat | Дата: 1-11-2018, 05:00 | .torrent скачали: 0

    Мажор (2018) WEB-DL [H.264 / 1080p-LQ] (сезон 3, серии 1-3 из 16) (обновляемая)Производство: Россия/Продюсерская компания Среда
    Жанр: драма, криминал
    Режиссер: Игорь Твердохлебов

    Актеры
    Павел Прилучный, Карина Разумовская, Любовь Аксенова, Дмитрий Шевченко, Александр Обласов, Дмитрий Лысенков, Игорь Черневич, Михаил Елисеев, Андрей Погребинский, Вадим Дубровин и др.

    Описание

    Игорь Соколовский давно перестал быть тем Мажором, для которого служба в полиции — вынужденная ссылка. Давняя смерть матери и недавнее убийство отца — два события, определившие его дальнейшую жизнь — могут быть раскрыты во многом благодаря этой службе. Мажор растет как профессионал, ежедневно работая над раскрытием различных преступлений, но расследование главной драмы его жизни ставит перед ним новые задачи. Чтобы отомстить за смерть отца, он в совершенстве овладел бизнес-стратегиями, чтобы найти и наказать убийцу матери, ему нужно освоить нечто совершенно новое. И самое сложное при этом — остаться в рамках закона. В поисках преступника Мажор окажется у черты, но останутся ли у него законные средства, чтобы наказать убийцу?

    Возраст: 16+ (зрителям, достигшим 16 лет)
    Дата российской премьеры: 29 октября 2018
    Продолжительность: ~00: 48: 00 серия
    Качество видео: WEB-DL
    Видео: AVC/H.264, 1920x1080 (16: 9), ~4563 Kbps
    Аудио: AC3, 2 ch, 192 Kbps

    Общее
    Уникальный идентификатор : 218223598092510182457348464487218753242 (0xA42C56121C084B5D913F89CE8EC72EDA)
    Полное имя : C: UsersUserDesktopNNMClubMazhor.s03.2018.WEB-DL.(1080p).GettyMazhor.s03e01.2018.WEB-DL.(1080p).Getty.mkv
    Формат : Matroska
    Версия формата : Version 4
    Размер файла : 1, 63 Гбайт
    Продолжительность : 48 м. 11 с.
    Режим общего битрейта : Постоянный
    Общий поток : 4851 Кбит/сек
    Название фильма : Mazhor.s03e01.2018.WEB-DL.(1080p).Getty
    Дата кодирования : UTC 2018-10-29 17: 54: 34
    Программа кодирования : mkvmerge v7.8.0 ('River Man') 32bit built on Mar 27 2015 16: 18: 02
    Библиотека кодирования : libebml v1.3.1 + libmatroska v1.4.2
    Видео
    Идентификатор : 1
    Формат : AVC
    Формат/Информация : Advanced Video Codec
    Профиль формата : High@L4.1
    Настройки формата : CABAC/4 Ref Frames
    Параметр CABAC формата : Да
    Параметр RefFrames формата : 4 кадра
    Идентификатор кодека : V_MPEG4/ISO/AVC
    Продолжительность : 48 м. 11 с.
    Вид битрейта : Постоянный
    Битрейт : 4563 Кбит/сек
    Номинальный битрейт : 4800 Кбит/сек
    Ширина : 1920 пикселей
    Высота : 1080 пикселей
    Соотношение сторон : 16: 9
    Режим частоты кадров : Постоянный
    Частота кадров : 25, 000 кадров/сек
    Цветовое пространство : YUV
    Субдискретизация насыщенности : 4: 2: 0
    Битовая глубина : 8 бит
    Тип развёртки : Прогрессивная
    Бит/(Пиксели*Кадры) : 0.088
    Размер потока : 1, 54 Гбайт (94%)
    Default : Да
    Forced : Нет
    Аудио
    Идентификатор : 2
    Формат : AC-3
    Формат/Информация : Audio Coding 3
    Коммерческое название : Dolby Digital
    Идентификатор кодека : A_AC3
    Продолжительность : 48 м. 11 с.
    Вид битрейта : Постоянный
    Битрейт : 192 Кбит/сек
    Каналы : 2 канала
    Channel layout : L R
    Частота : 48, 0 КГц
    Частота кадров : 31, 250 кадров/сек (1536 SPF)
    Битовая глубина : 16 бит
    Метод сжатия : С потерями
    Размер потока : 66, 2 Мбайт (4%)
    ServiceKind/String : Complete Main
    Default : Да
    Forced : Нет


    Онлайн видео Мажор (2018) WEB-DL [H.264



    Мажор (2018) WEB-DL [H.264/1080p-LQ] (сезон 3, серии 1-3 из 16) (обновляемая)
    Рейтинг →
     (голосов: 1, оценка 4/5, голосовать можно 1 раз )

    Другие торренты по теме:

  • Мажор (2016) WEB-DL [H264 / 720p-LQ] (сезон 2, серии 1-6 из 12) (обновляемая)
  • Мажор (2016) WEB-DL [H.264 / 1080p-LQ] (сезон 2, серии 1-12 из 12)


    • Комментарии (0):

      Информация

      Информация

        Посетители, находящиеся в группе Гости, не могут оставлять комментарии в данной новости.

        ↓ Меню




        ↓ Опрос

        Вы добавили сайт в закладки?
        Да
        Нет


        Top 10 за месяц (Фильмы)