.
Авторизация | Регистрация
Хочешь лучшие торренты? Добавь свой email!
Добавить

Торрент скачать бесплатно

  • support: webmaster@btracker.club
» » Квартирник на НТВ у Маргулиса. Денис Мажуков (10.27.2018) WEBRip [H.264 / 1080p-LQ] торрент скачать бесплатно


    Квартирник на НТВ у Маргулиса. Денис Мажуков (10.27.2018) WEBRip [H.264 / 1080p-LQ] торрент скачать бесплатно

    Опубликовал: fregat | Дата: 1-11-2018, 05:00 | .torrent скачали: 0

    Квартирник на НТВ у Маргулиса. Денис Мажуков (10.27.2018) WEBRip [H.264 / 1080p-LQ]Производство: НТВ
    Жанр: Концерт

    Описание

    На легендарном Квартирнике побывал Денис Мажуков, который подарил зрителям незабываемый концерт с зажигательными ритмами. Музыкант рассказал, как началось его увлечение рок-н-роллом и когда состоялся его дебют на телевидении. Евгений Маргулис узнал у звездного гостя, как ему удалось сделать выбор в жизни между спортом и музыкой. Денис вспомнил, что травма ноги прервала его спортивную карьеру, но зато музыка подарила ему в жизни невероятные моменты.
    Релиз от: Алехаndr
    Продолжительность: 00: 56: 12
    Качество видео: WEBRip
    Субтитры: Отсутствуют
    Видео: AVC/H.264, 1920x1080 (16: 9), ~1690 Kbps
    Аудио: AC3, 2 ch, 192 Kbps

    Общее
    Уникальный идентификатор : 95155702952123659068350979359834274402 (0x4796525F7BEB9797F139B0F769DA7A62)
    Полное имя : D: Квартирник НТВ у Маргулиса (Денис Мажуков).by.Алехаndr.mkv
    Формат : Matroska
    Версия формата : Version 4
    Размер файла : 758 Мбайт
    Продолжительность : 56 м. 12 с.
    Общий поток : 1886 Кбит/сек
    Дата кодирования : UTC 2018-10-28 10: 29: 36
    Программа кодирования : mkvmerge v28.2.0 ('The Awakening') 64-bit
    Библиотека кодирования : libebml v1.3.6 + libmatroska v1.4.9/Lavf57.71.100
    Видео
    Идентификатор : 1
    Формат : AVC
    Формат/Информация : Advanced Video Codec
    Профиль формата : High@L4
    Настройки формата : CABAC/3 Ref Frames
    Параметр CABAC формата : Да
    Параметр RefFrames формата : 3 кадра
    Идентификатор кодека : V_MPEG4/ISO/AVC
    Продолжительность : 56 м. 12 с.
    Битрейт : 1692 Кбит/сек
    Ширина : 1920 пикселей
    Высота : 1080 пикселей
    Соотношение сторон : 16: 9
    Режим частоты кадров : Постоянный
    Частота кадров : 25, 000 кадров/сек
    Цветовое пространство : YUV
    Субдискретизация насыщенности : 4: 2: 0
    Битовая глубина : 8 бит
    Тип развёртки : Прогрессивная
    Бит/(Пиксели*Кадры) : 0.033
    Размер потока : 680 Мбайт (90%)
    Default : Да
    Forced : Нет
    Цветовой диапазон : Limited
    Основные цвета : BT.709
    Характеристики трансфера : BT.709
    Коэффициенты матрицы : BT.709
    Аудио
    Идентификатор : 2
    Формат : AC-3
    Формат/Информация : Audio Coding 3
    Коммерческое название : Dolby Digital
    Идентификатор кодека : A_AC3
    Продолжительность : 56 м. 12 с.
    Вид битрейта : Постоянный
    Битрейт : 192 Кбит/сек
    Каналы : 2 канала
    Channel layout : L R
    Частота : 48, 0 КГц
    Частота кадров : 31, 250 кадров/сек (1536 SPF)
    Битовая глубина : 16 бит
    Метод сжатия : С потерями
    Размер потока : 77, 2 Мбайт (10%)
    Язык : English
    ServiceKind/String : Complete Main
    Default : Да
    Forced : Нет

    Скриншоты для ознакомления



    Все релизы Квартирник на НТВ у Маргулиса в Клубе
    Время раздачи: 24/7 (круглосуточно) (до появления первых 3-5 скачавших)


    Онлайн видео Квартирник на НТВ у Маргулиса. Денис Мажуков (10.27.2018) WEBRip [H.264



    Квартирник на НТВ у Маргулиса. Денис Мажуков (10.27.2018) WEBRip [H.264/1080p-LQ]
    Рейтинг →
     (голосов: 1, оценка 3/5, голосовать можно 1 раз )

    Другие торренты по теме:

  • Квартирник у Маргулиса. Новогодний квартирник. Часть 2 (2016) WEBRip скачать через торрент бесплатно
  • Квартирник у Маргулиса. Новогодний квартирник. Часть 1 (2016) WEBRip скачать через торрент бесплатно
  • Квартирник у Маргулиса - Новогодний квартирник (две части) (2015) DVBRip
  • Квартирник у Маргулиса - ЧайФ (2015) DVBRip скачать через торрент бесплатно
  • Квартирник у Маргулиса - Несчастный Случай (2015) DVBRip скачать через торрент бесплатно
  • Квартирник у Маргулиса - СерьГа (2015) DVBRip скачать через торрент бесплатно
  • Квартирник у Маргулиса - Крематорий (2015) DVBRip скачать через торрент бесплатно
  • Квартирник у Маргулиса. 5 выпуск. Чиж (2015) WEBRip скачать через торрент бесплатно


    • Комментарии (0):

      Информация

      Информация

        Посетители, находящиеся в группе Гости, не могут оставлять комментарии в данной новости.

        ↓ Меню




        ↓ Опрос

        Вы добавили сайт в закладки?
        Да
        Нет


        Top 10 за месяц (Фильмы)