.
Авторизация | Регистрация
Хочешь лучшие торренты? Добавь свой email!
Добавить

Торрент скачать бесплатно

  • support: webmaster@btracker.club
» » Юнона и Авось (1983) DVB [H.264 / 1080i-LQ] торрент скачать бесплатно


    Юнона и Авось (1983) DVB [H.264 / 1080i-LQ] торрент скачать бесплатно

    Опубликовал: fregat | Дата: 1-11-2018, 05:00 | .torrent скачали: 0

    Юнона и Авось (1983) DVB [H.264 / 1080i-LQ]Производство: СССР/Гостелерадио СССР
    Жанр: Мюзикл, Драма, Мелодрама, Музыка
    Режиссер: Марк Захаров

    Актеры
    Николай Караченцов, Елена Шанина, Александр Абдулов, Павел Смеян, Владимир Белоусов, Александр Садо, Радий Овчинников, Владимир Кузнецов, Сергей Греков, Ирина Алфёрова

    Описание

    Два парусных корабля Юнона и Авось под российским флагом прибывают в Калифорнию, где капитан брига Авось полюбил местную красавицу с гасиенды, чем вызвал ревность и ненависть влюбленного в нее соперника.

    Возраст: 0+ (для любой зрительской аудитории)
    Продолжительность: 01: 22: 52
    Качество видео: DVB 1080i
    Субтитры: отсутствуют
    Видео: AVC/H.264, 1920x1080, ~7406 Лbps
    Аудио: MP2, 2 ch, 224 Kbps

    General
    ID : 16 (0x10)
    Complete name : Юнона и Авось_HD.ts
    Format : MPEG-TS
    File size : 4.65 GiB
    Duration : 1 h 22 min
    Overall bit rate mode : Variable
    Overall bit rate : 8 029 kb/s
    Video
    ID : 1901 (0x76D)
    Menu ID : 901 (0x385)
    Format : AVC
    Format/Info : Advanced Video Codec
    Format profile : High@L4
    Format settings : CABAC/3 Ref Frames
    Format settings, CABAC : Yes
    Format settings, RefFrames : 3 frames
    Format settings, GOP : M=4, N=32
    Codec ID : 27
    Duration : 1 h 22 min
    Bit rate : 7 406 kb/s
    Width : 1 920 pixels
    Height : 1 080 pixels
    Display aspect ratio : 16: 9
    Frame rate : 25.000 FPS
    Standard : PAL
    Color space : YUV
    Chroma subsampling : 4: 2: 0
    Bit depth : 8 bits
    Scan type : Interlaced
    Scan type, store method : Separated fields
    Scan order : Top Field First
    Bits/(Pixel*Frame) : 0.143
    Stream size : 4.29 GiB (92%)
    Color range : Limited
    Color primaries : BT.709
    Transfer characteristics : BT.709
    Matrix coefficients : BT.709
    Audio
    ID : 2901 (0xB55)
    Menu ID : 901 (0x385)
    Format : MPEG Audio
    Format version : Version 1
    Format profile : Layer 2
    Codec ID : 4
    Duration : 1 h 22 min
    Bit rate mode : Constant
    Bit rate : 224 kb/s
    Channel(s) : 2 channels
    Sampling rate : 48.0 kHz
    Frame rate : 41.667 FPS (1152 SPF)
    Compression mode : Lossy
    Delay relative to video : 76 ms
    Stream size : 133 MiB (3%)
    Language : std
    Language, more info : Clean effects

    Скриншоты для ознакомления



    Все одноименные релизы в Клубе
    Время раздачи: Сб-Вс с 09: 00 до 23: 30 (до появления первых 3-5 скачавших)


    Онлайн видео Юнона и Авось (1983) DVB [H.264



    Юнона и Авось (1983) DVB [H.264/1080i-LQ]
    Рейтинг →
     (голосов: 1, оценка 4/5, голосовать можно 1 раз )

    Другие торренты по теме:

  • Юнона и Авось (2004) DVDRip


    • Комментарии (0):

      Информация

      Информация

        Посетители, находящиеся в группе Гости, не могут оставлять комментарии в данной новости.

        ↓ Меню




        ↓ Опрос

        Вы добавили сайт в закладки?
        Да
        Нет


        Top 10 за месяц (Фильмы)