.
Авторизация | Регистрация
Хочешь лучшие торренты? Добавь свой email!
Добавить

Торрент скачать бесплатно

  • support: webmaster@btracker.club
» » Сияние / The Shining (1980) BDRip [H.264 / 720p-LQ] торрент скачать бесплатно


    Сияние / The Shining (1980) BDRip [H.264 / 720p-LQ] торрент скачать бесплатно

    Опубликовал: fregat | Дата: 1-11-2018, 05:00 | .torrent скачали: 0

    Сияние / The Shining (1980) BDRip [H.264 / 720p-LQ]Производство: США, Великобритания, Warner Bros. Pictures, Hawk Films, Peregrine
    Жанр: Ужасы, Триллер, Детектив
    Режиссер: Стэнли Кубрик

    Актеры
    Джек Николсон, Шелли Дювалл, Дэнни Ллойд, Скэтман Крозерс, Энн Джексон, Тони Бёртон, Барри Нелсон, Филип Стоун, Джо Теркел

    Описание

    Главный герой — Джек Торренс — приехал в элегантный уединенный отель, чтобы поработать смотрителем во время мертвого сезон любимого сериалаа вместе со своей женой и сыном. Торренс здесь раньше никогда не бывал. Или это не совсем так? Ответ лежит во мраке, сотканном из преступного кошмара.

    Возраст: 16+ (зрителям, достигшим 16 лет)
    Рейтинг MPAA: R (лицам до 17 лет обязательно присутствие взрослого)
    Релиз от: NNMClub
    Продолжительность: 02: 23: 46
    Качество видео: BDRip (batonchik )
    Перевод: Профессиональный (многоголосый закадровый)
    Субтитры: Русские
    Видео: AVC/H.264, 1280х720, ~ 3500 kbps, 23.976 FPS
    Аудио: AC-3, 6 ch, 448 kbps | Русский (Киномания)
    --Information Вт 30.10.18 11: 05: 44 Standard error stream
    ---Information Вт 30.10.18 11: 05: 52 y4m info: 1280x720p 1: 1 @ 24000/1001 fps (cfr)
    ---Information Вт 30.10.18 11: 05: 52 x264 info: using SAR=1/1
    ---Information Вт 30.10.18 11: 05: 52 x264 info: using cpu capabilities: MMX2 SSE2Fast SSSE3 SSE4.2 AVX
    ---Information Вт 30.10.18 11: 05: 52 x264 info: profile High, level 4.1, 4: 2: 0, 8-bit
    ---Information Вт 30.10.18 18: 15: 09 x264 info: frame I: 1136 Avg QP: 19.23 size: 114090
    ---Information Вт 30.10.18 18: 15: 09 x264 info: frame P: 41203 Avg QP: 20.55 size: 42562
    ---Information Вт 30.10.18 18: 15: 09 x264 info: frame B: 164480 Avg QP: 22.51 size: 11478

    ---Information Вт 30.10.18 18: 15: 09 x264 info: consecutive B-frames: 1.1% 1.9% 2.8% 24.3% 10.3% 43.6% 3.8% 10.8% 0.5% 0.4% 0.2% 0.2%

    General
    Unique ID : 36994967060284347526511798205537635621 (0x1BD4F8B342C1168D7A8E26E90C18CD25)
    Complete name : Сияние_The Shining.1980.BDRip.720p.LQ.NNMClub.mkv
    Format : Matroska
    Format version : Version 4/Version 2
    File size : 3.96 GiB
    Duration : 2 h 23 min
    Overall bit rate : 3 947 kb/s
    Movie name : Сияние_The Shining.1980.BDRip.720p.LQ.NNMClub
    Encoded date : UTC 2018-10-31 09: 45: 32
    Writing application : mkvmerge v28.2.0 ('The Awakening') 64-bit
    Writing library : libebml v1.3.6 + libmatroska v1.4.9
    Video
    ID : 1
    Format : AVC
    Format/Info : Advanced Video Codec
    Format profile : High@L4.1
    Format settings : CABAC/8 Ref Frames
    Format settings, CABAC : Yes
    Format settings, ReFrames : 8 frames
    Codec ID : V_MPEG4/ISO/AVC
    Duration : 2 h 23 min
    Bit rate : 3 499 kb/s
    Width : 1 280 pixels
    Height : 720 pixels
    Display aspect ratio : 16: 9
    Frame rate mode : Constant
    Frame rate : 23.976 (24000/1001) FPS
    Color space : YUV
    Chroma subsampling : 4: 2: 0
    Bit depth : 8 bits
    Scan type : Progressive
    Bits/(Pixel*Frame) : 0.158
    Stream size : 3.51 GiB (89%)
    Title : Сияние_The Shining.1980.BDRip.720p.LQ.NNMClub
    Writing library : x264 core 157 r2935 545de2f
    Encoding settings : cabac=1/ref=8/deblock=1: -3: -3/analyse=0x3: 0x133/me=umh/subme=11/psy=1/psy_rd=1.00: 0.25/mixed_ref=1/me_range=32/chroma_me=1/trellis=2/8x8dct=1/cqm=0/deadzone=6, 6/fast_pskip=0/chroma_qp_offset=-4/threads=12/lookahead_threads=3/sliced_threads=0/nr=0/decimate=0/interlaced=0/bluray_compat=0/constrained_intra=0/bframes=11/b_pyramid=2/b_adapt=2/b_bias=0/direct=1/weightb=1/open_gop=0/weightp=2/keyint=240/keyint_min=23/scenecut=40/intra_refresh=0/rc_lookahead=40/rc=2pass/mbtree=1/bitrate=3499/ratetol=1.0/qcomp=0.60/qpmin=0/qpmax=69/qpstep=4/cplxblur=20.0/qblur=0.5/vbv_maxrate=50000/vbv_bufsize=62500/nal_hrd=none/filler=0/ip_ratio=1.10/aq=3: 0.70
    Language : English
    Default : Yes
    Forced : No
    Audio
    ID : 2
    Format : AC-3
    Format/Info : Audio Coding 3
    Codec ID : A_AC3
    Duration : 2 h 23 min
    Bit rate mode : Constant
    Bit rate : 448 kb/s
    Channel(s) : 6 channels
    Channel positions : Front: L C R, Side: L R, LFE
    Sampling rate : 48.0 kHz
    Frame rate : 31.250 FPS (1536 SPF)
    Bit depth : 16 bits
    Compression mode : Lossy
    Stream size : 461 MiB (11%)
    Title : MVO (Киномания)
    Language : Russian
    Service kind : Complete Main
    Default : Yes
    Forced : No
    Text #1
    ID : 3
    Format : UTF-8
    Codec ID : S_TEXT/UTF8
    Codec ID/Info : UTF-8 Plain Text
    Duration : 2 h 19 min
    Bit rate : 67 b/s
    Count of elements : 1469
    Stream size : 68.7 KiB (0%)
    Title : Киномания
    Language : Russian
    Default : No
    Forced : No
    Text #2
    ID : 4
    Format : UTF-8
    Codec ID : S_TEXT/UTF8
    Codec ID/Info : UTF-8 Plain Text
    Duration : 2 h 20 min
    Bit rate : 67 b/s
    Count of elements : 1432
    Stream size : 69.7 KiB (0%)
    Title : Uncle KiLler
    Language : Russian
    Default : No
    Forced : No
    Menu
    00: 00: 00.000 : en: Drive to the Overlook
    00: 03: 00.847 : en: The Interview
    00: 05: 05.638 : en: Quite a Story
    00: 10: 34.467 : en: Bloody Vision
    00: 12: 07.893 : en: The Doctor's Questions
    00: 14: 24.697 : en: Family History
    00: 17: 38.390 : en: Closing Day
    00: 20: 31.230 : en: The Tour
    00: 24: 58.997 : en: Doc Gets The Message
    00: 28: 52.063 : en: Talk of Shining - and Room 237
    00: 34: 10.548 : en: A Month Later: Bouncing and Exploring
    00: 40: 29.260 : en: Tuesday: Curiosity for Danny, Rules for Wendy
    00: 46: 01.425 : en: Thursday: Snowbound
    00: 46: 52.643 : en: Saturday: Slipping Out of Touch
    00: 49: 17.788 : en: Come and Play
    00: 51: 16.573 : en: Monday: I Love You, Danny
    00: 57: 02.252 : en: Wednesday: Room 237 Beckons
    00: 58: 37.180 : en: Nightmares and Neck Wounds
    01: 02: 37.587 : en: The Gold Room
    01: 06: 06.128 : en: Words of Wisdom
    01: 09: 01.137 : en: Halloran Shines; Jack Rages
    01: 16: 52.774 : en: Danny Shines; Jack Rages
    01: 22: 19.100 : en: The Party
    01: 25: 30.291 : en: Delbert Grady
    01: 31: 41.496 : en: Redrum! Danny's Not Here
    01: 34: 04.305 : en: Sabotage
    01: 35: 49.076 : en: Halloran Flies In
    01: 39: 30.965 : en: All Work and No Play
    01: 43: 50.390 : en: What Should Be Done With Danny
    01: 49: 26.893 : en: Jack In Storage; Wendy In A Frenzy
    01: 54: 24.858 : en: Grady Intervenes; Halloran en Route
    01: 58: 45.118 : en: Redrum!
    02: 01: 09.929 : en: Here's Johnny
    02: 05: 30.523 : en: On The Prowl
    02: 07: 33.145 : en: Halloran Killed
    02: 10: 23.982 : en: Into The Maze
    02: 12: 10.422 : en: Great Party, Isn't It?
    02: 15: 03.762 : en: Escape
    02: 18: 57.495 : en: The Overlook Claims Jack
    02: 21: 17.969 : en: End Credits

    Скриншоты для ознакомления



    Все одноименные релизы в Клубе
    Время раздачи: 24/7 (круглосуточно) (до появления первых 3-5 скачавших)


    Онлайн видео Сияние



    Сияние/The Shining (1980) BDRip [H.264/720p-LQ]
    Рейтинг →
     (голосов: 1, оценка 5/5, голосовать можно 1 раз )

    Другие торренты по теме:

  • Сияние / The Shining (1980) BDRip [H.264] скачать через торрент бесплатно
  • Сияние / The Shining (1980) BDRip [H.264 / 1080p-LQ] [Unrated US Cut] скачать через торрент бесплатно
  • Сияние / The Shining (1980) BDRemux [VC-1 / 1080p] [Расширенная версия]
  • Сияние / The Shining (1980) BDRip [H.265 / 1080p-LQ] [10-bit] [Unrated US Cut]


    • Комментарии (0):

      Информация

      Информация

        Посетители, находящиеся в группе Гости, не могут оставлять комментарии в данной новости.

        ↓ Меню




        ↓ Опрос

        Вы добавили сайт в закладки?
        Да
        Нет


        Top 10 за месяц (Фильмы)