.
Авторизация | Регистрация
Хочешь лучшие торренты? Добавь свой email!
Добавить

Торрент скачать бесплатно

  • support: webmaster@btracker.club
» » Трамвай удачи (1993) TVRip торрент скачать бесплатно


    Трамвай удачи (1993) TVRip торрент скачать бесплатно

    Опубликовал: fregat | Дата: 1-11-2018, 05:00 | .torrent скачали: 0

    Трамвай удачи (1993) TVRipПроизводство: Украина/Киностудия им.Довженко
    Жанр: Короткометражный, драма
    Режиссер: Анна Гресь

    Актеры
    Константин Шафоренко, Владимир Кашпур, Виктор Сарайкин, Таисия Калинченко, Марк Гресь, Руслана Писанка, Василий Хорошко

    Описание

    После несчастного случая, в результате которого погиб человек, виновник происшедшего живет ирреальной жизнью: герой постоянно ездит в темном трамвае, пассажиры которого — его старые знакомые из прежней реальной и еще свободной жизни.

    Продолжительность: 00: 20: 28
    Качество видео: TVRip
    Язык озвучки: русский
    Субтитры: Отсутствуют
    Видео: Xvid, 720x520, ~2000 Kbps
    Аудио: MP3, 2 ch, 192 Kbps

    Общее
    Полное имя : D: Трамвай удачи (1993).by.Алехаndr.avi
    Формат : AVI
    Формат/Информация : Audio Video Interleave
    Размер файла : 322 Мбайт
    Продолжительность : 20 м. 28 с.
    Общий поток : 2199 Кбит/сек
    Программа кодирования : VirtualDubMod 1.5.10.3 |www.virtualdub-fr.org|| (build 2550/release)
    Библиотека кодирования : VirtualDubMod build 2550/release
    Видео
    Идентификатор : 0
    Формат : MPEG-4 Visual
    Профиль формата : Advanced Simple@L5
    Настройки формата : BVOP2
    Параметр BVOP формата : 2
    Параметр QPel формата : Нет
    Параметр GMC формата : Без точки перехода
    Параметр матрицы формата : Default (H.263)
    Идентификатор кодека : XVID
    Идентификатор кодека/Подсказка : XviD
    Продолжительность : 20 м. 28 с.
    Битрейт : 1998 Кбит/сек
    Ширина : 720 пикселей
    Высота : 520 пикселей
    Соотношение сторон : 1, 385
    Частота кадров : 25, 000 кадров/сек
    Цветовое пространство : YUV
    Субдискретизация насыщенности : 4: 2: 0
    Битовая глубина : 8 бит
    Тип развёртки : Прогрессивная
    Метод сжатия : С потерями
    Бит/(Пиксели*Кадры) : 0.213
    Размер потока : 293 Мбайт (91%)
    Библиотека кодирования : XviD 73
    Аудио
    Идентификатор : 1
    Формат : MPEG Audio
    Версия формата : Version 1
    Профиль формата : Layer 3
    Идентификатор кодека : 55
    Идентификатор кодека/Подсказка : MP3
    Продолжительность : 20 м. 28 с.
    Вид битрейта : Постоянный
    Битрейт : 192 Кбит/сек
    Каналы : 2 канала
    Частота : 48, 0 КГц
    Частота кадров : 41, 667 кадра/сек (1152 SPF)
    Метод сжатия : С потерями
    Размер потока : 28, 1 Мбайт (9%)
    Выравнивание : Соединение по промежуткам
    Продолжительность промежутка : 40 мс. (1, 00 видеокадр)
    Время предзагрузки промежутка : 504 мс.
    Библиотека кодирования : LAME3.99r
    Настройки программы : -m s -V 4 -q 0 -lowpass 18.6 -b 192

    Скриншоты для ознакомления



    Все одноименные релизы в Клубе
    Время раздачи: 24/7 (круглосуточно) (до появления первых 3-5 скачавших)


    Онлайн видео Анжелика, маркиза ангелов



    Трамвай удачи (1993) TVRip
    Рейтинг →
     (голосов: 1, оценка 3/5, голосовать можно 1 раз )

    Другие торренты по теме:

  • Космические путевые станции / Way Stations In Space (1960) TVRip [Трамвай фильм]
  • Теннеси Уильямс - Трамвай «Желание» (2013) SATRip (школа-студия МХАТ)
  • ЗВЕЗДА. Специальный репортаж. Украина трамвай желаний (18.04.2016) SATRip
  • Трамвай «Желание» / A Streetcar Named Desire (2014) HDTV [H.264 / 1080p] [EN]
  • Украли трамвай / We Stole a Tram (1956) DVDRip [H.264]
  • Канадская конная полиция против атомных захватчиков / Canadian Mounties vs Atomic Invaders (1953) DVDRip (серии 1-12 из 12) Трамвай фильм
  • Лидия Раевская | Билет на вчерашний трамвай (2009) [FB2]
  • Трамвай в другие города (1962) SATRip [H.264] [MP4|700X556@741X556]


    • Комментарии (0):

      Информация

      Информация

        Посетители, находящиеся в группе Гости, не могут оставлять комментарии в данной новости.

        ↓ Меню




        ↓ Опрос

        Вы добавили сайт в закладки?
        Да
        Нет


        Top 10 за месяц (Фильмы)