.
Авторизация | Регистрация
Хочешь лучшие торренты? Добавь свой email!
Добавить

Торрент скачать бесплатно

  • support: webmaster@btracker.club
» » Пирамида сынов Солнца / Die Pyramide des Sonnengottes / Pyramid of the Sun God (1965) BDRip [H.264 / 720р-LQ] торрент скачать бесплатно


    Пирамида сынов Солнца / Die Pyramide des Sonnengottes / Pyramid of the Sun God (1965) BDRip [H.264 / 720р-LQ] торрент скачать бесплатно

    Опубликовал: fregat | Дата: 1-11-2018, 05:00 | .torrent скачали: 0

    Пирамида сынов Солнца / Die Pyramide des Sonnengottes / Pyramid of the Sun God (1965) BDRip [H.264 / 720р-LQ]Жанр: Приключения, Вестерн
    Производство: Германия (ФРГ), Франция, Италия/Central Cinema Company Film (CCC), Avala Film, Franco London Films
    Режиссер: Роберт Сьодмак

    Актеры
    Лекс Баркер, Мишель Жирардон, Жерар Баррэ, Ганс Нилсен, Рик Батталья, Густаво Рохо, Тереза Лорка, Ральф Вольтер, Кело Хендерсон, Алессандра Панаро

    Описание

    По роману Карла Мая Замок Родригандов.
    В 1864 году в Мексике вопреки воле народа к власти пришел ставленник Наполеона III эрцгерцог Максимилиан Австрийский. Зреет революционное движение. Лидеру повстанцев Бенито Хуаресу через немецкого врача передает послание президент США Линкольн.
    Карл Стернау и его компаньоны отправляются на поиски древних сокровищ ацтеков, но оказываются в плену у бандитов. Злодеи держат пленников и принцессу Джарию в лабиринте под пирамидой бога Солнца. Героям удается сбежать, но бандиты первыми добираются до сокровищ. Кто же станет обладателем золота...
    Фильм был снят в двух частях:
    часть 1: Сокровище ацтеков/Der Schatz der Azteken,
    часть 2: Пирамида сынов Солнца/Die Pyramide des Sonnengottes

    Релиз от: Охрана (NNM-CLUB)
    Продолжительность: 01: 38: 36
    Качество видео: BDRip
    Перевод: Многоголосый закадровый (Петербург, 5-й канал)
    Субтитры: Отсутствуют
    Видео: AVC/H.264, 1280x544, ~2784 Kbps
    Аудио 1: AC3, 2 ch, 192 Kbps - Русский
    Аудио 2: AC3, 2 ch, 192 Kbps - Немецкий
    Код: выделить все

    General
    Unique ID : 234425228055129070880675818471150181197 (0xB05CA819C36CDF96A83EC8AAE20DDB4D)
    Complete name : F:DownloadsПирамида сынов Солнца. 1965. NNMCLUB.mkv
    Format : Matroska
    Format version : Version 4/Version 2
    File size : 2.18 GiB
    Duration : 1h 38mn
    Overall bit rate : 3 171 Kbps
    Encoded date : UTC 2016-07-01 12:21:48
    Writing application : mkvmerge v7.0.0 ('Where We Going') 32bit built on Jun 9 2014 15:08:34
    Writing library : libebml v1.3.0 + libmatroska v1.4.1
    DURATION : 01:38:36.448000000
    NUMBER_OF_FRAMES : 184889
    NUMBER_OF_BYTES : 141994752
    _STATISTICS_WRITING_APP : mkvmerge v7.0.0 ('Where We Going') 32bit built on Jun 9 2014 15:08:34
    _STATISTICS_WRITING_DATE_UTC : 2016-07-01 12:21:48
    _STATISTICS_TAGS : BPS DURATION NUMBER_OF_FRAMES NUMBER_OF_BYTES
    Video
    ID : 1
    Format : AVC
    Format/Info : Advanced Video Codec
    Format profile :High@L4.1
    Format settings, CABAC : Yes
    Format settings, ReFrames : 8 frames
    Codec ID : V_MPEG4/ISO/AVC
    Duration : 1h 38mn
    Bit rate : 2 784 Kbps
    Width : 1 280 pixels
    Height : 544 pixels
    Display aspect ratio : 2.35:1
    Frame rate mode : Constant
    Frame rate : 23.976 fps
    Color space : YUV
    Chroma subsampling : 4:2:0
    Bit depth : 8 bits
    Scan type : Progressive
    Bits/(Pixel*Frame) : 0.167
    Stream size : 1.88 GiB (86%)
    Title : Die Pyramide des Sonnengottes
    Writing library : x264 core 125 r2208 d9d2288
    Encoding settings : cabac=1/ref=8/deblock=1:-1:-1/analyse=0x3:0x133/me=umh/subme=9/psy=1/psy_rd=1.00:0.10/mixed_ref=1/me_range=32/chroma_me=1/trellis=2/8x8dct=1/cqm=0/deadzone=21, 11/fast_pskip=0/chroma_qp_offset=-3/threads=6/lookahead_threads=1/sliced_threads=0/nr=0/decimate=1/interlaced=0/bluray_compat=0/constrained_intra=0/bframes=3/b_pyramid=2/b_adapt=2/b_bias=0/direct=3/weightb=1/open_gop=0/weightp=2/keyint=250/keyint_min=25/scenecut=40/intra_refresh=0/rc_lookahead=60/rc=2pass/mbtree=1/bitrate=2784/ratetol=1.0/qcomp=0.60/qpmin=0/qpmax=69/qpstep=4/cplxblur=20.0/qblur=0.5/ip_ratio=1.40/aq=1:1.00
    Language : German
    Default : Yes
    Forced : No
    Audio #1
    ID : 2
    Format : AC-3
    Format/Info : Audio Coding 3
    Format profile : Dolby Digital
    Mode extension : CM (complete main)
    Format settings, Endianness : Big
    Codec ID : A_AC3
    Duration : 1h 38mn
    Bit rate mode : Constant
    Bit rate : 192 Kbps
    Channel(s) : 2 channels
    Channel positions : Front: L R
    Sampling rate : 48.0 KHz
    Bit depth : 16 bits
    Compression mode : Lossy
    Stream size : 135 MiB (6%)
    Title : Многоголосый закадровый
    Language : Russian
    Default : Yes
    Forced : No
    Audio #2
    ID : 3
    Format : AC-3
    Format/Info : Audio Coding 3
    Mode extension : CM (complete main)
    Format settings, Endianness : Big
    Codec ID : A_AC3
    Duration : 1h 38mn
    Bit rate mode : Constant
    Bit rate : 192 Kbps
    Channel(s) : 2 channels
    Channel positions : Front: L R
    Sampling rate : 48.0 KHz
    Bit depth : 16 bits
    Compression mode : Lossy
    Stream size : 135 MiB (6%)
    Title : Оригинал
    Language : German
    Default : No
    Forced : No

    Скриншоты для ознакомления




    Все одноименные релизы в Клубе
    Время раздачи: с 13: 00 до 01: 00 МСК, выходные круглосуточно (до появления первых 3-5 скачавших)


    Онлайн видео Пирамида сынов Солнца



    Пирамида сынов Солнца/Die Pyramide des Sonnengottes/Pyramid of the Sun God (1965) BDRip [H.264/720р-LQ]
    Рейтинг →
     (голосов: 1, оценка 4/5, голосовать можно 1 раз )

    Другие торренты по теме:

  • Пирамида сынов Солнца / Die Pyramide des Sonnengottes / Pyramid of the Sun God (1965) DVDRip [H.264]
  • Пирамида сынов Солнца / Die Pyramide des Sonnengottes (1965) BDRip [H.264 / 720р-LQ]


    • Комментарии (0):

      Информация

      Информация

        Посетители, находящиеся в группе Гости, не могут оставлять комментарии в данной новости.

        ↓ Меню




        ↓ Опрос

        Вы добавили сайт в закладки?
        Да
        Нет


        Top 10 за месяц (Фильмы)