.
Авторизация | Регистрация
Хочешь лучшие торренты? Добавь свой email!
Добавить

Торрент скачать бесплатно

  • support: webmaster@btracker.club
» » Зависимость / Habit (2017) HDRip [MVO] торрент скачать бесплатно


    Зависимость / Habit (2017) HDRip [MVO] торрент скачать бесплатно

    Опубликовал: fregat | Дата: 1-11-2018, 05:00 | .torrent скачали: 0

    Зависимость / Habit (2017) HDRip [MVO]Производство: Великобритания
    Жанр: Ужасы
    Режиссер: Семен Халлиган
    Продюсер: Ник Лиз, Рэйчел Ричардсон-Джонс, Карл Холл

    Актеры
    Джессика Барден, Роксанна Паллетт, Уильям Эш, Эллиотт Джеймс Лангридж, Луис Эмерик, Сэлли Карман, Эммануэль Игодаро, Эндрю Эллис, Джоэнн Митчелл и др.

    Описание

    Манчестер, наши дни. Майкл все дни напролет проводит либо в пабе, либо на бирже труда. Совершенно случайно он знакомится с Ли, которая потом знакомит его со своим дядей Йеном, который устраивает его вышибалой в свой массажный салон. Став однажды свидетелем ужасной смерти одного из клиентов, Майкл всё чаще начинает видеть кровавые флешбэки той ночи. По каким-то загадочным причинам этот неведомый ночной мир манит и привлекает его. Однако, когда парень узнает, что на самом деле таит закулисье салона Седьмое небо, он понимает, что его жизнь уже никогда не будет прежней.

    Продолжительность: 01: 36: 26
    Качество видео: HDRip
    Перевод: Многоголосый закадровый, любительский (HiWayGrope)
    Субтитры: отсутствуют
    Внимание! Присутствует ненормативная лексика!
    Видео: Xvid, 720x304, ~1669 Kbps
    Аудио 1: AC3, 2 ch, 256 Kbps | русский
    Аудио 2: AC3, 6 ch, 384 Kbps | английский

    Общее
    Полное имя : D: FILMЬlHabit.avi
    Формат : AVI
    Формат/Информация : Audio Video Interleave
    Размер файла : 1, 56 Гбайт
    Продолжительность : 1 ч. 36 м.
    Общий поток : 2323 Кбит/сек
    Программа кодирования : VirtualDubMod 1.5.10.2 (build 2540/release)
    Библиотека кодирования : VirtualDubMod build 2540/release
    Видео
    Идентификатор : 0
    Формат : MPEG-4 Visual
    Профиль формата : Advanced Simple@L5
    Настройки формата : BVOP2
    Параметр BVOP формата : 2
    Параметр QPel формата : Нет
    Параметр GMC формата : Без точки перехода
    Параметр матрицы формата : Default (H.263)
    Режим смешивания : Сжатый битовый поток
    Идентификатор кодека : XVID
    Идентификатор кодека/Подсказка : XviD
    Продолжительность : 1 ч. 36 м.
    Битрейт : 1669 Кбит/сек
    Ширина : 720 пикселей
    Высота : 304 пикселя
    Соотношение сторон : 2, 35: 1
    Частота кадров : 24, 000 кадра/сек
    Цветовое пространство : YUV
    Субдискретизация насыщенности : 4: 2: 0
    Битовая глубина : 8 бит
    Тип развёртки : Прогрессивная
    Метод сжатия : С потерями
    Бит/(Пиксели*Кадры) : 0.318
    Размер потока : 1, 12 Гбайт (72%)
    Библиотека кодирования : XviD 66
    Аудио #1
    Идентификатор : 1
    Формат : AC-3
    Формат/Информация : Audio Coding 3
    Идентификатор кодека : 2000
    Продолжительность : 1 ч. 36 м.
    Вид битрейта : Постоянный
    Битрейт : 256 Кбит/сек
    Каналы : 2 канала
    Расположение каналов : Front: L R
    Частота : 48, 0 КГц
    Частота кадров : 31, 250 кадров/сек (1536 SPF)
    Битовая глубина : 16 бит
    Метод сжатия : С потерями
    Размер потока : 177 Мбайт (11%)
    Выравнивание : Разделение по промежуткам
    Продолжительность промежутка : 42 мс. (1, 00 видеокадр)
    Время предзагрузки промежутка : 500 мс.
    ServiceKind/String : Complete Main
    Аудио #2
    Идентификатор : 2
    Формат : AC-3
    Формат/Информация : Audio Coding 3
    Идентификатор кодека : 2000
    Продолжительность : 1 ч. 36 м.
    Вид битрейта : Постоянный
    Битрейт : 384 Кбит/сек
    Каналы : 6 каналов
    Расположение каналов : Front: L C R, Side: L R, LFE
    Частота : 48, 0 КГц
    Частота кадров : 31, 250 кадров/сек (1536 SPF)
    Битовая глубина : 16 бит
    Метод сжатия : С потерями
    Размер потока : 265 Мбайт (17%)
    Выравнивание : Соединение по промежуткам
    Продолжительность промежутка : 42 мс. (1, 00 видеокадр)
    Время предзагрузки промежутка : 512 мс.
    ServiceKind/String : Complete Main

    Скриншоты для ознакомления



    Все одноименные релизы в Клубе
    Время раздачи: с 09: 00 до 23: 30 (до появления первых 3-5 скачавших)


    Онлайн видео Зависимость



    Зависимость/Habit (2017) HDRip [MVO]
    Рейтинг →
     (голосов: 1, оценка 3/5, голосовать можно 1 раз )

    Другие торренты по теме:

  • В теме. Чёрная зависимость (2015) SATRip скачать через торрент бесплатно
  • Марк Льюис | Биология желания. Зависимость - не болезнь (2017) [PDF]
  • Владимир Шпак | Как победить компьютерную зависимость и получить суперсилы (2017) [FB2, EPUB]
  • Марк Льюис | Биология желания. Зависимость — не болезнь (2017) [FB2, EPUB]


    • Комментарии (0):

      Информация

      Информация

        Посетители, находящиеся в группе Гости, не могут оставлять комментарии в данной новости.

        ↓ Меню




        ↓ Опрос

        Вы добавили сайт в закладки?
        Да
        Нет


        Top 10 за месяц (Фильмы)