.
Авторизация | Регистрация
Хочешь лучшие торренты? Добавь свой email!
Добавить

Торрент скачать бесплатно

  • support: webmaster@btracker.club
» » Сумерки. Сага. Рассвет - Часть 2 / The Twilight Saga: Breaking Dawn - Part 2 (2012) BDRip [H.265 / 1080p-LQ] [10-bit] торрент скачать бесплатно


    Сумерки. Сага. Рассвет - Часть 2 / The Twilight Saga: Breaking Dawn - Part 2 (2012) BDRip [H.265 / 1080p-LQ] [10-bit] торрент скачать бесплатно

    Опубликовал: fregat | Дата: 1-11-2018, 05:00 | .torrent скачали: 0

    Сумерки. Сага. Рассвет - Часть 2 / The Twilight Saga: Breaking Dawn - Part 2 (2012) BDRip [H.265 / 1080p-LQ] [10-bit]Производство: США Summit Entertainment, Temple Hill Entertainment, Sunswept Entertainment
    Жанр: Фэнтези, Драма, Мелодрама, Приключения
    Режиссер: Билл Кондон

    Актеры
    Кристен Стюарт, Роберт Паттинсон, Тэйлор Лотнер, Питер Фачинелли, Элизабет Ризер, Эшли Грин, Джексон Рэтбоун, Келлан Латс, Никки Рид, Билли Бёрк

    Описание

    Белла, став вампиром, постепенно свыкается со своей новой природой. В этом ей помогают Эдвард и остальные члены семьи Калленов. К тому же теперь у Беллы есть дочь Ренесми и вечность впереди. Джейкоб, запечатленный с Ренесми, становится для девочки другом и наставником. Ненадолго для героев наступают спокойные, счастливые дни. Все заканчивается, когда вести о Ренесми доходят до Вольтури. Обращение детей строго запрещено в мире вампиров. Не зная о необычном происхождении Ренесми, Вольтури собирают армию и направляются в Форкс, чтобы уничтожить Калленов.

    Возраст: 12+ (зрителям, достигшим 12 лет)
    Рейтинг MPAA: PG-13 (детям до 13 лет просмотр нежелателен)
    Дата выхода DVD/Blu-ray релиза: 12 марта 2013, West Video
    Релиз от: M@kSIMus
    Продолжительность: 01: 55: 13
    Качество видео: BDRip
    Перевод: Дублированный (Лицензия)
    Субтитры: Русские (полные)
    Видео: HEVC/H.265, 1920x800, ~5491 Kbps
    Аудио: AC3, 6 ch, 448 Kbps | Русский
    Аудио: AC3, 6 ch, 448 Kbps | Английский

    Общее
    Уникальный идентификатор : 32464296665218103177387936021388025662 (0x186C6567466652FED3B912209EED5F3E)
    Полное имя : E: ФильмыTwilight.Сумерки. Сага. Рассвет - Часть 2 (2012) BDRip 1080p HEVC 10 bit.mkv
    Формат : Matroska
    Версия формата : Version 4/Version 2
    Размер файла : 5, 14 Гбайт
    Продолжительность : 1 ч. 55 м.
    Общий поток : 6389 Кбит/сек
    Название фильма : Rip_by_M@kSIMus
    Дата кодирования : UTC 2018-10-31 03: 54: 20
    Программа кодирования : mkvmerge v28.0.0 ('Voice In My Head') 64-bit
    Библиотека кодирования : libebml v1.3.6 + libmatroska v1.4.9
    Обложка : Yes
    Attachments : cover6.jpg
    Видео
    Идентификатор : 1
    Формат : HEVC
    Формат/Информация : High Efficiency Video Coding
    Профиль формата : Main10@L4.1@High
    Идентификатор кодека : V_MPEGH/ISO/HEVC
    Продолжительность : 1 ч. 55 м.
    Битрейт : 5491 Кбит/сек
    Ширина : 1920 пикселей
    Высота : 800 пикселей
    Соотношение сторон : 2, 40: 1
    Режим частоты кадров : Постоянный
    Частота кадров : 23, 976 (24000/1001) кадра/сек
    Цветовое пространство : YUV
    Субдискретизация насыщенности : 4: 2: 0
    Битовая глубина : 10 бит
    Бит/(Пиксели*Кадры) : 0.149
    Размер потока : 4, 42 Гбайт (86%)
    Библиотека кодирования : x265 2.8+74-fd517ae68f93: WindowsGCC 7.3.064 bit 10bit
    Настройки программы : cpuid=1049583/frame-threads=5/numa-pools=4/wpp/no-pmode/no-pme/no-psnr/no-ssim/log-level=3/input-csp=1/input-res=1920x800/interlace=0/total-frames=0/level-idc=41/high-tier=1/uhd-bd=0/ref=5/allow-non-conformance/no-repeat-t_heads/annexb/no-aud/no-hrd/info/hash=0/no-temporal-layers/open-gop/min-keyint=24/keyint=240/gop-lookahead=0/bframes=8/b-adapt=2/b-pyramid/bframe-bias=0/rc-lookahead=40/lookahead-slices=5/scenecut=40/radl=0/no-intra-refresh/ctu=64/min-cu-size=8/no-rect/no-amp/max-tu-size=32/tu-inter-depth=1/tu-intra-depth=1/limit-tu=0/rdoq-level=0/dynamic-rd=0.00/no-ssim-rd/signhide/no-tskip/nr-intra=0/nr-inter=0/no-constrained-intra/strong-intra-smoothing/max-merge=2/limit-refs=3/no-limit-modes/me=3/subme=7/merange=57/temporal-mvp/weightp/no-weightb/no-analyze-src-pics/deblock=-3: -3/no-sao/no-sao-non-deblock/rd=3/no-early-skip/rskip/no-fast-intra/no-tskip-fast/no-cu-lossless/no-b-intra/no-splitrd-skip/rdpenalty=0/psy-rd=2.00/psy-rdoq=0.00/no-rd-refine/no-lossless/cbqpoffs=0/crqpoffs=0/rc=crf/crf=17.5/qcomp=0.60/qpstep=4/stats-write=0/stats-read=0/vbv-maxrate=50000/vbv-bufsize=50000/vbv-init=0.9/crf-max=0.0/crf-min=0.0/ipratio=1.40/pbratio=1.30/aq-mode=1/aq-strength=1.00/cutree/zone-count=0/no-strict-cbr/qg-size=32/no-rc-grain/qpmax=69/qpmin=0/no-const-vbv/sar=1/overscan=0/videoformat=5/range=0/colorprim=1/transfer=1/colormatrix=1/chromaloc=0/display-window=0/max-cll=0, 0/min-luma=0/max-luma=1023/log2-max-poc-lsb=8/vui-timing-info/vui-hrd-info/slices=1/no-opt-qp-pps/no-opt-ref-list-length-pps/no-multi-pass-opt-rps/scenecut-bias=0.05/no-opt-cu-delta-qp/no-aq-motion/no-hdr/no-hdr-opt/no-dhdr10-opt/no-idr-recovery-sei/analysis-reuse-level=5/scale-factor=0/refine-intra=0/refine-inter=0/refine-mv=0/no-limit-sao/ctu-info=0/no-lowpass-dct/refine-mv-type=0/copy-pic=1/max-ausize-factor=1.0/no-dynamic-refine/no-single-sei
    Язык : English
    Default : Да
    Forced : Нет
    Цветовой диапазон : Limited
    Основные цвета : BT.709
    Характеристики трансфера : BT.709
    Коэффициенты матрицы : BT.709
    Аудио #1
    Идентификатор : 2
    Формат : AC-3
    Формат/Информация : Audio Coding 3
    Идентификатор кодека : A_AC3
    Продолжительность : 1 ч. 55 м.
    Вид битрейта : Постоянный
    Битрейт : 448 Кбит/сек
    Каналы : 6 каналов
    Расположение каналов : Front: L C R, Side: L R, LFE
    Частота : 48, 0 КГц
    Частота кадров : 31, 250 кадров/сек (1536 SPF)
    Битовая глубина : 16 бит
    Метод сжатия : С потерями
    Размер потока : 369 Мбайт (7%)
    Заголовок : Дубляж
    Язык : Russian
    ServiceKind/String : Complete Main
    Default : Да
    Forced : Нет
    Аудио #2
    Идентификатор : 3
    Формат : AC-3
    Формат/Информация : Audio Coding 3
    Идентификатор кодека : A_AC3
    Продолжительность : 1 ч. 55 м.
    Вид битрейта : Постоянный
    Битрейт : 448 Кбит/сек
    Каналы : 6 каналов
    Расположение каналов : Front: L C R, Side: L R, LFE
    Частота : 48, 0 КГц
    Частота кадров : 31, 250 кадров/сек (1536 SPF)
    Битовая глубина : 16 бит
    Метод сжатия : С потерями
    Размер потока : 369 Мбайт (7%)
    Заголовок : Оригинал
    Язык : English
    ServiceKind/String : Complete Main
    Default : Нет
    Forced : Нет
    Текст
    Идентификатор : 4
    Формат : UTF-8
    Идентификатор кодека : S_TEXT/UTF8
    Идентификатор кодека/Информация : UTF-8 Plain Text
    Продолжительность : 1 ч. 45 м.
    Битрейт : 58 бит/сек
    ElementCount : 834
    Размер потока : 45, 6 Кбайт (0%)
    Заголовок : Full
    Язык : Russian
    Default : Нет
    Forced : Нет
    Меню
    00: 00: 00.000 : : 00: 00: 00.000
    00: 08: 04.067 : : 00: 08: 04.067
    00: 13: 35.398 : : 00: 13: 35.398
    00: 18: 36.073 : : 00: 18: 36.073
    00: 22: 11.080 : : 00: 22: 11.080
    00: 30: 03.343 : : 00: 30: 03.343
    00: 38: 06.159 : : 00: 38: 06.159
    00: 44: 23.619 : : 00: 44: 23.619
    00: 48: 35.830 : : 00: 48: 35.830
    00: 52: 31.440 : : 00: 52: 31.440
    00: 58: 11.947 : : 00: 58: 11.947
    01: 02: 10.352 : : 01: 02: 10.352
    01: 08: 26.060 : : 01: 08: 26.060
    01: 11: 38.503 : : 01: 11: 38.503
    01: 20: 35.456 : : 01: 20: 35.456
    01: 24: 57.509 : : 01: 24: 57.509
    01: 32: 17.157 : : 01: 32: 17.157
    01: 38: 08.966 : : 01: 38: 08.966

    Скриншоты для ознакомления



    Все одноименные релизы в Клубе
    Время раздачи: 24/7 (круглосуточно)


    Онлайн видео Сумерки. Сага. Рассвет - Часть 2



    Сумерки. Сага. Рассвет - Часть 2/The Twilight Saga: Breaking Dawn - Part 2 (2012) BDRip [H.265/1080p-LQ] [10-bit]
    Рейтинг →
     (голосов: 1, оценка 4/5, голосовать можно 1 раз )

    Другие торренты по теме:

  • Сумерки. Сага / The Twilight Saga (2008-2012) BDRip [720p] [Антология]
  • Сумерки. Сага. Затмение / The Twilight Saga: Eclipse (2010) BDRip [720p] [hand made 60fps] скачать через торрент бесплатно
  • Сумерки. Сага / The Twilight Saga (2008-2012) BDRip [1080p] [Антология]
  • Сумерки. Сага. Новолуние / The Twilight Saga: New Moon (2009) BDRip [H.265 / 1080p-LQ] [10-bit]
  • Сумерки. Сага. Рассвет - Часть 1 / The Twilight Saga: Breaking Dawn - Part 1 (2011) BDRip [H.265 / 1080p-LQ] [10-bit]
  • Сумерки. Сага. Затмение / The Twilight Saga: Eclipse (2010) BDRip [H.265 / 1080p-LQ] [10-bit]
  • Сага о чудовище. Сумерки / Wildling (2018) WEB-DL [H.264 / 1080p-LQ]
  • Сага о чудовище. Сумерки / Wildling (2018) WEB-DL [1080p] ATV


    • Комментарии (0):

      Информация

      Информация

        Посетители, находящиеся в группе Гости, не могут оставлять комментарии в данной новости.

        ↓ Меню




        ↓ Опрос

        Вы добавили сайт в закладки?
        Да
        Нет


        Top 10 за месяц (Фильмы)