.
Авторизация | Регистрация
Хочешь лучшие торренты? Добавь свой email!
Добавить

Торрент скачать бесплатно

  • support: webmaster@btracker.club
» » Крепостная актриса (1963) DVB [H.264 / 1080i-LQ] торрент скачать бесплатно


    Крепостная актриса (1963) DVB [H.264 / 1080i-LQ] торрент скачать бесплатно

    Опубликовал: fregat | Дата: 1-11-2018, 05:00 | .torrent скачали: 0

    Крепостная актриса (1963) DVB [H.264 / 1080i-LQ]Производство: СССР/Ленфильм
    Жанр: Мюзикл, Комедия, Мелодрама
    Режиссер: Роман Тихомиров

    Актеры
    Тамара Семина, Евгений Леонов, Дмитрий Смирнов, Сергей Юрский, Гренада Мнацаканова, Александр Потапов, Сергей Филиппов, Гликерия Богданова-Чеснокова, Марина Полбенцева, Е. Орлов (II), Е. Лемке

    Описание

    Настя Батманова — бывшая крепостная, красавица, стала прославленной актрисой придворного театра. Посмотрев мир, завоевав Париж, она возвращается домой и попадает в роскошные залы особняка Кутайсова, в окружение дам и гусаров. Там она сталкивается с любовными переживаниями…

    Возраст: 12+ (зрителям, достигшим 12 лет)
    Продолжительность: 01: 32: 47
    Качество видео: DVB 1080i
    Видео: AVC/H.264, 1920х1080, ~8576 Kbps
    Аудио #1: MP2, 48 kHz, 2 ch, 224 kbps
    Аудио #2: АС-3, 48 kHz, 6 ch, 384 kbps

    General
    ID : 16 (0x10)
    Complete name : Krepostnaya aktrisa_1963_HD.ts
    Format : MPEG-TS
    File size : 6.28 GiB
    Duration : 1 h 32 min
    Overall bit rate mode : Variable
    Overall bit rate : 9 668 kb/s
    Video
    ID : 1902 (0x76E)
    Menu ID : 92 (0x5C)
    Format : AVC
    Format/Info : Advanced Video Codec
    Format profile : High@L4
    Format settings : CABAC/3 Ref Frames
    Format settings, CABAC : Yes
    Format settings, RefFrames : 3 frames
    Codec ID : 27
    Duration : 1 h 32 min
    Bit rate : 8 576 kb/s
    Width : 1 920 pixels
    Height : 1 080 pixels
    Display aspect ratio : 16: 9
    Frame rate : 25.000 FPS
    Standard : PAL
    Color space : YUV
    Chroma subsampling : 4: 2: 0
    Bit depth : 8 bits
    Scan type : Interlaced
    Scan type, store method : Separated fields
    Scan order : Top Field First
    Bits/(Pixel*Frame) : 0.165
    Stream size : 5.57 GiB (89%)
    Color range : Limited
    Color primaries : BT.709
    Transfer characteristics : BT.709
    Matrix coefficients : BT.709
    Audio #1
    ID : 2902 (0xB56)
    Menu ID : 92 (0x5C)
    Format : MPEG Audio
    Format version : Version 1
    Format profile : Layer 2
    Codec ID : 4
    Duration : 1 h 32 min
    Bit rate mode : Constant
    Bit rate : 224 kb/s
    Channel(s) : 2 channels
    Sampling rate : 48.0 kHz
    Frame rate : 41.667 FPS (1152 SPF)
    Compression mode : Lossy
    Delay relative to video : 132 ms
    Stream size : 149 MiB (2%)
    Language : std
    Language, more info : Clean effects
    Audio #2
    ID : 3902 (0xF3E)
    Menu ID : 92 (0x5C)
    Format : AC-3
    Format/Info : Audio Coding 3
    Commercial name : Dolby Digital
    Codec ID : 6
    Duration : 1 h 32 min
    Bit rate mode : Constant
    Bit rate : 384 kb/s
    Channel(s) : 6 channels
    Channel layout : L R C LFE Ls Rs
    Sampling rate : 48.0 kHz
    Frame rate : 31.250 FPS (1536 SPF)
    Bit depth : 16 bits
    Compression mode : Lossy
    Delay relative to video : 87 ms
    Stream size : 255 MiB (4%)
    Language : std
    Language, more info : Clean effects
    Service kind : Complete Main
    Other #1
    ID : 33 (0x21)-100
    Menu ID : 92 (0x5C)
    Format : Teletext
    Other #2
    ID : 33 (0x21)-888
    Menu ID : 92 (0x5C)
    Format : Teletext
    Language, more info : Additional information page

    Скриншоты для ознакомления



    Все одноименные релизы в Клубе
    Время раздачи: Сб-Вс с 09: 00 до 23: 30 (до появления первых 3-5 скачавших)


    Онлайн видео Крепостная актриса (1963) DVB [H.264



    Крепостная актриса (1963) DVB [H.264/1080i-LQ]
    Рейтинг →
     (голосов: 1, оценка 4/5, голосовать можно 1 раз )

    Другие торренты по теме:

  • Сергей Кара-Мурза и др. | Крепостная Россия. Мудрость народа или произвол власти (2016) [FB2]


    • Комментарии (0):

      Информация

      Информация

        Посетители, находящиеся в группе Гости, не могут оставлять комментарии в данной новости.

        ↓ Меню




        ↓ Опрос

        Вы добавили сайт в закладки?
        Да
        Нет


        Top 10 за месяц (Фильмы)