.
Авторизация | Регистрация
Хочешь лучшие торренты? Добавь свой email!
Добавить

Торрент скачать бесплатно

  • support: webmaster@btracker.club
» » Миг удачи (1977) TVRip торрент скачать бесплатно


    Миг удачи (1977) TVRip торрент скачать бесплатно

    Опубликовал: fregat | Дата: 1-11-2018, 05:00 | .torrent скачали: 0

    Миг удачи (1977) TVRipПроизводство: СССР
    Жанр: Драма, спорт
    Режиссер: Всеволод Плоткин

    Актеры
    Николай Караченцов, Борис Щербаков, Лидия Константинова, Юрий Визбор, Алексей Инжеватов, Леонид Елинсон, Юрис Лауциньш, Владислав Ковальков, Марина Трошина

    Описание

    Молодой журналист Федоров приезжает на горнолыжный курорт, где тренируются спортсмены. Он пытается разобраться в психологии спортсменов-горнолыжников. Особенно его интересует судьба Сергея Максимова. Чемпион по горнолыжному спорту Сергей получает серьезную травму. Но расстаться с горнолыжной трассой он не может и вновь начинает тренироваться. Тренер понимает, что Максимов уже не сможет вновь стать чемпионом, но он нужен сборной команде страны как человек, способный объединить вокруг себя молодежь…

    Возраст: 16+ (зрителям, достигшим 16 лет)
    Релиз от: Алехаndr
    Продолжительность: 01: 03: 26
    Качество видео: TVRip
    Субтитры: Отсутствуют
    Видео: Xvid, 720x528 (4: 3), ~2000 Kbps
    Аудио: AC3, 2 ch, 192 Kbps

    Общее
    Полное имя : D: Миг удачи (1977).by.Алехаndr.avi
    Формат : AVI
    Формат/Информация : Audio Video Interleave
    Размер файла : 998 Мбайт
    Продолжительность : 1 ч. 3 м.
    Общий поток : 2199 Кбит/сек
    Программа кодирования : VirtualDubMod 1.5.10.3 |www.virtualdub-fr.org|| (build 2550/release)
    Библиотека кодирования : VirtualDubMod build 2550/release
    Видео
    Идентификатор : 0
    Формат : MPEG-4 Visual
    Профиль формата : Advanced Simple@L5
    Настройки формата : BVOP2
    Параметр BVOP формата : 2
    Параметр QPel формата : Нет
    Параметр GMC формата : Без точки перехода
    Параметр матрицы формата : Default (H.263)
    Идентификатор кодека : XVID
    Идентификатор кодека/Подсказка : XviD
    Продолжительность : 1 ч. 3 м.
    Битрейт : 1998 Кбит/сек
    Ширина : 720 пикселей
    Высота : 528 пикселей
    Соотношение сторон : 4: 3
    Частота кадров : 24, 000 кадра/сек
    Цветовое пространство : YUV
    Субдискретизация насыщенности : 4: 2: 0
    Битовая глубина : 8 бит
    Тип развёртки : Прогрессивная
    Метод сжатия : С потерями
    Бит/(Пиксели*Кадры) : 0.219
    Размер потока : 907 Мбайт (91%)
    Библиотека кодирования : XviD 73
    Аудио
    Идентификатор : 1
    Формат : AC-3
    Формат/Информация : Audio Coding 3
    Коммерческое название : Dolby Digital
    Идентификатор кодека : 2000
    Продолжительность : 1 ч. 3 м.
    Вид битрейта : Постоянный
    Битрейт : 192 Кбит/сек
    Каналы : 2 канала
    Channel layout : L R
    Частота : 48, 0 КГц
    Частота кадров : 31, 250 кадров/сек (1536 SPF)
    Битовая глубина : 16 бит
    Метод сжатия : С потерями
    Размер потока : 87, 1 Мбайт (9%)
    Выравнивание : Разделение по промежуткам
    Продолжительность промежутка : 42 мс. (1, 00 видеокадр)
    Время предзагрузки промежутка : 500 мс.
    ServiceKind/String : Complete Main

    Скриншоты для ознакомления



    Все одноименные релизы в Клубе
    Время раздачи: 24/7 (круглосуточно) (до появления первых 3-5 скачавших)


    Миг удачи (1977) TVRip
    Рейтинг →
     (голосов: 1, оценка 3/5, голосовать можно 1 раз )

    Другие торренты по теме:

  • Удачи Вам, Господа! (1992) TVRip скачать через торрент бесплатно
  • Трамвай удачи (1993) TVRip


    • Комментарии (0):

      Информация

      Информация

        Посетители, находящиеся в группе Гости, не могут оставлять комментарии в данной новости.

        ↓ Меню




        ↓ Опрос

        Вы добавили сайт в закладки?
        Да
        Нет


        Top 10 за месяц (Фильмы)