.
Авторизация | Регистрация
Хочешь лучшие торренты? Добавь свой email!
Добавить

Торрент скачать бесплатно

  • support: webmaster@btracker.club
» » Униженные и оскорбленные (1990) DVDRip торрент скачать бесплатно


    Униженные и оскорбленные (1990) DVDRip торрент скачать бесплатно

    Опубликовал: fregat | Дата: 1-11-2018, 05:00 | .torrent скачали: 0

    Униженные и оскорбленные (1990) DVDRipПроизводство: СССР, Швейцария, Италия
    Жанр: Драма, Мелодрама
    Режиссер: Андрей Эшпай

    Актеры
    Настасья Кински — Наташа Ихменева, Сергей Перелыгин — Иван Петрович, Виктор Раков — Алёша Валковский, Никита Михалков — князь Валковский, Анастасия Вяземская — Нелли (Лена), Александр Абдулов — Маслобоев, Борис Романов — Николай Ихменев

    Описание

    В основе фильма — история двух семей, разорённых аристократом князем Валковским, любовь Наташи Ихменевой и сына Валковского; судьба молодого писателя Ивана Петровича, безответно влюблённого в Наташу, и сиротки Нелли, чья жизнь также таинственно связана с князем.

    Возраст: 0+ (для любой зрительской аудитории)
    Релиз от: NoNaMe Club byalmikl ®
    Продолжительность: 01: 39: 44
    Качество видео: DVDRip
    Видео: Xvid, 720х544, ~1300 Kbps
    Аудио: AC3, 6 ch, 448 Kbps

    Общее
    Полное имя : Униженные и оскорбленные.1990.DVDRip.almikl.nnmclub.avi
    Формат : AVI
    Формат/Информация : Audio Video Interleave
    Размер файла : 1, 23 Гбайт
    Продолжительность : 1 ч. 40 м.
    Общий поток : 1752 Кбит/сек
    Программа кодирования : VirtualDubMod 1.5.4.1 (build 2178/release)
    Библиотека кодирования : VirtualDubMod build 2178/release
    Видео
    Идентификатор : 0
    Формат : MPEG-4 Visual
    Профиль формата : Advanced Simple@L5
    Настройки формата : Custom Matrix
    Параметр BVOP формата : Нет
    Параметр QPel формата : Нет
    Параметр GMC формата : Без точки перехода
    Параметр матрицы формата : Выборочная
    Идентификатор кодека : XVID
    Идентификатор кодека/Подсказка : XviD
    Продолжительность : 1 ч. 40 м.
    Битрейт : 1299 Кбит/сек
    Ширина : 720 пикселей
    Высота : 544 пикселя
    Соотношение сторон : 4: 3
    Частота кадров : 25, 000 кадров/сек
    Цветовое пространство : YUV
    Субдискретизация насыщенности : 4: 2: 0
    Битовая глубина : 8 бит
    Тип развёртки : Прогрессивная
    Метод сжатия : С потерями
    Бит/(Пиксели*Кадры) : 0.133
    Размер потока : 932 Мбайт (74%)
    Библиотека кодирования : XviD 73
    Аудио
    Идентификатор : 1
    Формат : AC-3
    Формат/Информация : Audio Coding 3
    Коммерческое название : Dolby Digital
    Идентификатор кодека : 2000
    Продолжительность : 1 ч. 39 м.
    Вид битрейта : Постоянный
    Битрейт : 448 Кбит/сек
    Каналы : 6 каналов
    Channel layout : L R C LFE Ls Rs
    Частота : 48, 0 КГц
    Частота кадров : 31, 250 кадров/сек (1536 SPF)
    Битовая глубина : 16 бит
    Метод сжатия : С потерями
    Размер потока : 320 Мбайт (25%)
    Выравнивание : Разделение по промежуткам
    Продолжительность промежутка : 97 мс. (2, 41 видеокадра)
    Время предзагрузки промежутка : 96 мс.
    ServiceKind/String : Complete Main

    Скриншоты для ознакомления





    Все одноименные релизы в Клубе
    Время раздачи: 24 (до появления первых 3-5 скачавших)


    Униженные и оскорбленные (1990) DVDRip
    Рейтинг →
     (голосов: 1, оценка 3/5, голосовать можно 1 раз )

    Другие торренты по теме:

  • Фёдор Достоевский - Униженные и оскорбленные (1979) SATRip (Малый театр)
  • Униженные и оскорбленные (1990) DVDRip [H.264]


    • Комментарии (0):

      Информация

      Информация

        Посетители, находящиеся в группе Гости, не могут оставлять комментарии в данной новости.

        ↓ Меню




        ↓ Опрос

        Вы добавили сайт в закладки?
        Да
        Нет


        Top 10 за месяц (Фильмы)