.
Авторизация | Регистрация
Хочешь лучшие торренты? Добавь свой email!
Добавить

Торрент скачать бесплатно

  • support: webmaster@btracker.club
» » Зловещие мертвецы 2 / Evil Dead II (1987) BDRip [H.264 / 1080p] [REMASTERED] торрент скачать бесплатно


    Зловещие мертвецы 2 / Evil Dead II (1987) BDRip [H.264 / 1080p] [REMASTERED] торрент скачать бесплатно

    Опубликовал: fregat | Дата: 1-11-2018, 05:00 | .torrent скачали: 0

    Зловещие мертвецы 2 / Evil Dead II (1987) BDRip [H.264 / 1080p] [REMASTERED]Производство: США, De Laurentiis Entertainment Group (DEG), Renaissance Pictures, Acme Effects, Spectacular Effects International
    Жанр: Ужасы, Триллер, Комедия
    Режиссер: Сэм Рэйми

    Актеры
    Брюс Кэмпбелл, Сара Берри, Дэн Хикс, Кэсси ДеПайва, Тед Рэйми, Дениз Бикслер, Ричард Домайер, Джон Пикс, Лу Хэнкок, Сноуи Уинтерс, Сид Абрамс, Джош Бекер, Скотт Спигел, Томас Кидд, Митч Кантор, Дженни Гриффит, Уильям Престон Робертсон, Сэм Рэйми

    Описание

    Молодой человек Эш и девушка Линда приезжают в маленький домик, затерянный в лесах, с целью чудесно и романтично провести время. Осматривая дом, Эш находит старинную магическую книгу Некрономикон и магнитофон, на котором записаны таинственные магические заклинания. Но, будучи воспроизведенными, эти заклинания пробуждают могущественных духов, которые стремятся вселиться в живую плоть. И Эшу с Линдой предстоит теперь встретиться с целой армией зловещих мертвецов!

    Возраст: 18+ (зрителям, достигшим 18 лет. запрещено для детей)
    Рейтинг MPAA: R (лицам до 17 лет обязательно присутствие взрослого)
    Релиз от: HDReactor
    Продолжительность: 01: 24: 27
    Качество видео: BDRip
    Перевод: Профессиональный многоголосый, профессиональный двухголосый, авторский, любительский одноголосый
    Субтитры: Русские, английские
    Видео: AVC/H.264, 1920х1038, ~13.7 Мbps
    Аудио #1: Русский многоголосый: AC3, 6 ch, 448 kbps |CP Digital
    Аудио #2: Русский многоголосый: AC3, 6 ch, 384 kbps | Киномания
    Аудио #3: Русский двухголосый : AC3, 6 ch, 448 kbps | Гланц и Королёва
    Аудио #4: Русский одноголосый : AC3, 6 ch, 448 kbps | А. Михалёв
    Аудио #5 : Русский одноголосый : AC3, 6 ch, 448 kbps | Ю. Сербин
    Аудио #6: Русский одноголосый : AC3, 6 ch, 448 kbps | Jakob Bellmann
    Аудио #7: Русский одноголосый : AC3, 2 ch, 192 kbps | А. Гаврилов
    Аудио #8: Русский одноголосый : AC3, 2 ch, 192 kbps | Зереницын/Белов
    Аудио #9: Английский оригинал : AC3, 6 ch, 448 kbps

    Полное имя : J: Evil.Dead.2.1987.REMASTERED.BDRip.1080p.HDReactor.mkv
    Формат : Matroska
    Версия формата : Version 2
    Размер файла : 10, 1 Гбайт
    Продолжительность : 1 ч. 24 м.
    Общий поток : 17, 2 Мбит/сек
    Название фильма : ~V ad~
    Дата кодирования : UTC 2018-10-31 08: 32: 28
    Программа кодирования : mkvmerge v6.5.0 ('Isn't she lovely') built on Oct 20 2013 12: 50: 05
    Библиотека кодирования : libebml v1.3.0 + libmatroska v1.4.1
    Обложка : Yes
    Attachments : cover.jpg
    Видео
    Идентификатор : 1
    Формат : AVC
    Формат/Информация : Advanced Video Codec
    Профиль формата : High@L4.1
    Настройки формата : CABAC/4 Ref Frames
    Параметр CABAC формата : Да
    Параметр RefFrames формата : 4 кадра
    Идентификатор кодека : V_MPEG4/ISO/AVC
    Продолжительность : 1 ч. 24 м.
    Битрейт : 13, 7 Мбит/сек
    Ширина : 1920 пикселей
    Высота : 1038 пикселей
    Соотношение сторон : 1, 85: 1
    Режим частоты кадров : Постоянный
    Частота кадров : 24, 000 кадра/сек
    Цветовое пространство : YUV
    Субдискретизация насыщенности : 4: 2: 0
    Битовая глубина : 8 бит
    Тип развёртки : Прогрессивная
    Бит/(Пиксели*Кадры) : 0.286
    Размер потока : 7, 88 Гбайт (78%)
    Заголовок : ~V~
    Библиотека кодирования : x264 core 157 r2932 303c484
    Настройки программы : cabac=1/ref=4/deblock=1: -3: -3/analyse=0x3: 0x133/me=umh/subme=11/psy=1/psy_rd=1.00: 0.00/mixed_ref=1/me_range=32/chroma_me=1/trellis=2/8x8dct=1/cqm=0/deadzone=21, 11/fast_pskip=0/chroma_qp_offset=-2/threads=12/lookahead_threads=1/sliced_threads=0/nr=0/decimate=0/interlaced=0/bluray_compat=0/constrained_intra=0/bframes=10/b_pyramid=2/b_adapt=2/b_bias=0/direct=3/weightb=1/open_gop=0/weightp=2/keyint=240/keyint_min=24/scenecut=40/intra_refresh=0/rc=2pass/mbtree=0/bitrate=13700/ratetol=1.0/qcomp=0.76/qpmin=0/qpmax=69/qpstep=4/cplxblur=20.0/qblur=0.5/ip_ratio=1.30/pb_ratio=1.30/aq=3: 0.70
    Язык : Английский
    Default : Да
    Forced : Нет
    Аудио #1
    Идентификатор : 2
    Формат : AC-3
    Формат/Информация : Audio Coding 3
    Коммерческое название : Dolby Digital
    Идентификатор кодека : A_AC3
    Продолжительность : 1 ч. 24 м.
    Вид битрейта : Постоянный
    Битрейт : 448 Кбит/сек
    Каналы : 6 каналов
    Channel layout : L R C LFE Ls Rs
    Частота : 48, 0 КГц
    Частота кадров : 31, 250 кадров/сек (1536 SPF)
    Битовая глубина : 16 бит
    Метод сжатия : С потерями
    Размер потока : 271 Мбайт (3%)
    Заголовок : MVOCP Digital
    Язык : Русский
    Service Kind : Complete Main
    Default : Да
    Forced : Да
    Аудио #2
    Идентификатор : 3
    Формат : AC-3
    Формат/Информация : Audio Coding 3
    Коммерческое название : Dolby Digital
    Идентификатор кодека : A_AC3
    Продолжительность : 1 ч. 24 м.
    Вид битрейта : Постоянный
    Битрейт : 384 Кбит/сек
    Каналы : 6 каналов
    Channel layout : L R C LFE Ls Rs
    Частота : 48, 0 КГц
    Частота кадров : 31, 250 кадров/сек (1536 SPF)
    Битовая глубина : 16 бит
    Метод сжатия : С потерями
    Размер потока : 232 Мбайт (2%)
    Заголовок : MVOКиноманияl
    Язык : Русский
    Service Kind : Complete Main
    Default : Нет
    Forced : Нет
    Аудио #3
    Идентификатор : 4
    Формат : AC-3
    Формат/Информация : Audio Coding 3
    Коммерческое название : Dolby Digital
    Идентификатор кодека : A_AC3
    Продолжительность : 1 ч. 24 м.
    Вид битрейта : Постоянный
    Битрейт : 448 Кбит/сек
    Каналы : 6 каналов
    Channel layout : L R C LFE Ls Rs
    Частота : 48, 0 КГц
    Частота кадров : 31, 250 кадров/сек (1536 SPF)
    Битовая глубина : 16 бит
    Метод сжатия : С потерями
    Размер потока : 271 Мбайт (3%)
    Заголовок : DVOП. Гланц и И. Королёва
    Язык : Русский
    Service Kind : Complete Main
    Default : Нет
    Forced : Нет
    Аудио #4
    Идентификатор : 5
    Формат : AC-3
    Формат/Информация : Audio Coding 3
    Коммерческое название : Dolby Digital
    Идентификатор кодека : A_AC3
    Продолжительность : 1 ч. 24 м.
    Вид битрейта : Постоянный
    Битрейт : 448 Кбит/сек
    Каналы : 6 каналов
    Channel layout : L R C LFE Ls Rs
    Частота : 48, 0 КГц
    Частота кадров : 31, 250 кадров/сек (1536 SPF)
    Битовая глубина : 16 бит
    Метод сжатия : С потерями
    Размер потока : 271 Мбайт (3%)
    Заголовок : AVOА. Михалёв
    Язык : Русский
    Service Kind : Complete Main
    Default : Нет
    Forced : Нет
    Аудио #5
    Идентификатор : 6
    Формат : AC-3
    Формат/Информация : Audio Coding 3
    Коммерческое название : Dolby Digital
    Идентификатор кодека : A_AC3
    Продолжительность : 1 ч. 24 м.
    Вид битрейта : Постоянный
    Битрейт : 448 Кбит/сек
    Каналы : 6 каналов
    Channel layout : L R C LFE Ls Rs
    Частота : 48, 0 КГц
    Частота кадров : 31, 250 кадров/сек (1536 SPF)
    Битовая глубина : 16 бит
    Метод сжатия : С потерями
    Размер потока : 271 Мбайт (3%)
    Заголовок : AVOЮ. Сербин
    Язык : Русский
    Service Kind : Complete Main
    Default : Нет
    Forced : Нет
    Аудио #6
    Идентификатор : 7
    Формат : AC-3
    Формат/Информация : Audio Coding 3
    Коммерческое название : Dolby Digital
    Идентификатор кодека : A_AC3
    Продолжительность : 1 ч. 24 м.
    Вид битрейта : Постоянный
    Битрейт : 448 Кбит/сек
    Каналы : 6 каналов
    Channel layout : L R C LFE Ls Rs
    Частота : 48, 0 КГц
    Частота кадров : 31, 250 кадров/сек (1536 SPF)
    Битовая глубина : 16 бит
    Метод сжатия : С потерями
    Размер потока : 271 Мбайт (3%)
    Заголовок : AVOJakob Bellmann
    Язык : Русский
    Service Kind : Complete Main
    Default : Нет
    Forced : Нет
    Аудио #7
    Идентификатор : 8
    Формат : AC-3
    Формат/Информация : Audio Coding 3
    Коммерческое название : Dolby Digital
    Идентификатор кодека : A_AC3
    Продолжительность : 1 ч. 24 м.
    Вид битрейта : Постоянный
    Битрейт : 192 Кбит/сек
    Каналы : 2 канала
    Channel layout : L R
    Частота : 48, 0 КГц
    Частота кадров : 31, 250 кадров/сек (1536 SPF)
    Битовая глубина : 16 бит
    Метод сжатия : С потерями
    Размер потока : 116 Мбайт (1%)
    Заголовок : AVOА. Гаврилов
    Язык : Русский
    Service Kind : Complete Main
    Default : Нет
    Forced : Нет
    Аудио #8
    Идентификатор : 9
    Формат : AC-3
    Формат/Информация : Audio Coding 3
    Коммерческое название : Dolby Digital
    Идентификатор кодека : A_AC3
    Продолжительность : 1 ч. 24 м.
    Вид битрейта : Постоянный
    Битрейт : 192 Кбит/сек
    Каналы : 2 канала
    Channel layout : L R
    Частота : 48, 0 КГц
    Частота кадров : 31, 250 кадров/сек (1536 SPF)
    Битовая глубина : 16 бит
    Метод сжатия : С потерями
    Размер потока : 116 Мбайт (1%)
    Заголовок : AVOЗереницын/Белов
    Язык : Русский
    Service Kind : Complete Main
    Default : Нет
    Forced : Нет
    Аудио #9
    Идентификатор : 10
    Формат : AC-3
    Формат/Информация : Audio Coding 3
    Коммерческое название : Dolby Digital
    Идентификатор кодека : A_AC3
    Продолжительность : 1 ч. 24 м.
    Вид битрейта : Постоянный
    Битрейт : 448 Кбит/сек
    Каналы : 6 каналов
    Channel layout : L R C LFE Ls Rs
    Частота : 48, 0 КГц
    Частота кадров : 31, 250 кадров/сек (1536 SPF)
    Битовая глубина : 16 бит
    Метод сжатия : С потерями
    Размер потока : 271 Мбайт (3%)
    Язык : Английский
    Service Kind : Complete Main
    Default : Нет
    Forced : Нет
    Текст #1
    Идентификатор : 11
    Формат : UTF-8
    Идентификатор кодека : S_TEXT/UTF8
    Идентификатор кодека/Информация : UTF-8 Plain Text
    Язык : Русский
    Default : Нет
    Forced : Нет
    Текст #2
    Идентификатор : 12
    Формат : UTF-8
    Идентификатор кодека : S_TEXT/UTF8
    Идентификатор кодека/Информация : UTF-8 Plain Text
    Язык : Английский
    Default : Нет
    Forced : Нет
    Меню
    00: 00: 00.000 : en: Chapter 01
    00: 06: 57.333 : en: Chapter 02
    00: 14: 24.291 : en: Chapter 03
    00: 22: 28.000 : en: Chapter 04
    00: 26: 41.166 : en: Chapter 05
    00: 31: 36.958 : en: Chapter 06
    00: 46: 41.875 : en: Chapter 07
    00: 56: 35.458 : en: Chapter 08
    01: 05: 13.833 : en: Chapter 09
    01: 07: 23.416 : en: Chapter 10
    01: 14: 00.833 : en: Chapter 11
    01: 21: 11.083 : en: Chapter 12

    Скриншоты для ознакомления





    Все одноименные релизы в Клубе
    Время раздачи: 24/7 (до появления первых 3-5 скачавших)


    Онлайн видео Зловещие мертвецы 2



    Зловещие мертвецы 2/Evil Dead II (1987) BDRip [H.264/1080p] [REMASTERED]
    Рейтинг →
     (голосов: 1, оценка 3/5, голосовать можно 1 раз )

    Другие торренты по теме:

  • Зловещие мертвецы: Трилогия / The Evil Dead: Trilogy (1981,1987,1992) BDRip [H.264]
  • Зловещие мертвецы: Черная книга / Evil Dead (2013) BDRip [H.264 / 1080p-LQ] скачать через торрент бесплатно
  • Зловещие мертвецы / The Evil Dead (1981-1992) BDRip [H.264 / 1080p] [Трилогия] скачать через торрент бесплатно
  • Зловещие мертвецы: Черная книга / Evil Dead (2013) WEB-DL [H.264 / 2160p-LQ] скачать через торрент бесплатно
  • Зловещие мертвецы: Черная книга / Evil Dead 2013 WEB-DL [H.264 / 1080p-LQ] [Unrated] [EN / EN Sub]
  • Зловещие мертвецы / The Evil Dead (1981) BDRip [H.264 / 1080p] [Remastered, Open Matte]
  • Зловещие мертвецы / The Evil Dead (1981) BDRemux [H.264 / 1080p] [Remastered, Open Matte]
  • Зловещие мертвецы: Черная книга / Evil Dead (2013) BDRip [H.265 / 1080p-LQ]


    • Комментарии (0):

      Информация

      Информация

        Посетители, находящиеся в группе Гости, не могут оставлять комментарии в данной новости.

        ↓ Меню




        ↓ Опрос

        Вы добавили сайт в закладки?
        Да
        Нет


        Top 10 за месяц (Фильмы)