.
Авторизация | Регистрация
Хочешь лучшие торренты? Добавь свой email!
Добавить

Торрент скачать бесплатно

  • support: webmaster@btracker.club
» » Остров проклятых / Shutter Island (2010) UHD BDRemux [H.265 / 2160p] [4K, HDR, 10-bit] торрент скачать бесплатно


    Остров проклятых / Shutter Island (2010) UHD BDRemux [H.265 / 2160p] [4K, HDR, 10-bit] торрент скачать бесплатно

    Опубликовал: fregat | Дата: 1-11-2018, 05:00 | .torrent скачали: 0

    Остров проклятых / Shutter Island (2010) UHD BDRemux [H.265 / 2160p] [4K, HDR, 10-bit]Производство: США/Paramount Pictures
    Жанр: триллер, детектив, драма
    Режиссер: Мартин Скорсезе
    Продюсер: Брэдли Дж. Фишер, Майк Медавой, Мартин Скорсезе

    Актеры
    Леонардо ДиКаприо, Марк Руффало, Бен Кингсли, Макс фон Сюдов, Мишель Уильямс, Эмили Мортимер, Патришия Кларксон, Джеки Эрл Хейли, Тед Левайн, Джон Кэрролл Линч

    Описание

    Два американских судебных пристава отправляются на один из островов в штате Массачусетс, чтобы расследовать исчезновение пациентки клиники для умалишенных преступников. При проведении расследования им придется столкнуться с паутиной лжи, обрушившимся ураганом и смертельным бунтом обитателей клиники.

    Возраст: 16+ (зрителям, достигшим 16 лет)
    Рейтинг MPAA: R (лицам до 17 лет обязательно присутствие взрослого)

    Релиз от: SpaceHD13
    Продолжительность: 02: 18: 04
    Качество: UHD BDRemux (HDR)
    Перевод: Дублированный, авторский.
    Субтитры: Русские, английские
    Видео: H.265/HEVC, 3840x2160, (16: 9), 39.4 Mbps, 23.976 fps
    Аудио 1: DTS-HD, 6 ch, 3395 kbps - Русский, Дубляж
    Аудио 2: DTS-HD, 6 ch, 4195 kbps - Русский, Е.Гаевский
    Аудио 3: DTS-HD, 6 ch, 4232 kbps - Русский, А.Гаврилов
    Аудио 4: DTS-HD, 6 ch, 4205 kbps - Русский, Ю.Сербин
    Аудио 5: DTS-HD, 6 ch, 4725 kbps - Английский
    Аудио 6: AC3, 6 ch, 640 kbps - Английский
    Complete name : E: MoviesShutter.Island.2010.2160p.BluRay.REMUX.HEVC.DTS-HD.MA.5.1-SpaceHD13.mkv
    Format : Matroska
    Format version : Version 4/Version 2
    File size : 58.7 GiB
    Duration : 2 h 18 min
    Overall bit rate mode : Variable
    Overall bit rate : 60.9 Mb/s
    Movie name : UHD 2160 || Release by SpaceHD13
    Encoded date : UTC 2018-10-06 16: 24: 44
    Writing application : mkvmerge v27.0.0 ('Metropolis') 64-bit
    Writing library : libebml v1.3.6 + libmatroska v1.4.9
    Cover : Yes
    Attachments : cover.jpg
    Video
    ID : 1
    Format : HEVC
    Format/Info : High Efficiency Video Coding
    Commercial name : HDR10
    Format profile : Main10@L5.1@High
    Codec ID : V_MPEGH/ISO/HEVC
    Duration : 2 h 18 min
    Bit rate : 39.4 Mb/s
    Width : 3 840 pixels
    Height : 2 160 pixels
    Display aspect ratio : 16: 9
    Frame rate mode : Constant
    Frame rate : 23.976 (24000/1001) FPS
    Color space : YUV
    Chroma subsampling : 4: 2: 0 (Type 2)
    Bit depth : 10 bits
    Bits/(Pixel*Frame) : 0.198
    Stream size : 38.0 GiB (65%)
    Title : Shutter.Island.2010.2160p.BluRay.REMUX.HEVC.DTS-HD.MA.5.1-SpaceHD13
    Default : Yes
    Forced : No
    Color range : Limited
    Color primaries : BT.2020
    Transfer characteristics : PQ
    Matrix coefficients : BT.2020 non-constant
    Mastering display color pri : Display P3
    Mastering display luminance : min: 0.0001 cd/m2, max: 1000 cd/m2
    Audio #1
    ID : 2
    Format : DTS XLL
    Format/Info : Digital Theater Systems
    Commercial name : DTS-HD Master Audio
    Codec ID : A_DTS
    Duration : 2 h 18 min
    Bit rate mode : Variable
    Bit rate : 3 395 kb/s
    Channel(s) : 6 channels
    Channel layout : C L R Ls Rs LFE
    Sampling rate : 48.0 kHz
    Frame rate : 93.750 FPS (512 SPF)
    Bit depth : 24 bits
    Compression mode : Lossless
    Stream size : 3.27 GiB (6%)
    Title : DUB
    Language : Russian
    Default : Yes
    Forced : No
    Audio #2
    ID : 3
    Format : DTS XLL
    Format/Info : Digital Theater Systems
    Commercial name : DTS-HD Master Audio
    Codec ID : A_DTS
    Duration : 2 h 18 min
    Bit rate mode : Variable
    Bit rate : 4 195 kb/s
    Channel(s) : 6 channels
    Channel layout : C L R Ls Rs LFE
    Sampling rate : 48.0 kHz
    Frame rate : 93.750 FPS (512 SPF)
    Bit depth : 24 bits
    Compression mode : Lossless
    Stream size : 4.05 GiB (7%)
    Title : AVO Е.Гаевский
    Language : Russian
    Default : No
    Forced : No
    Audio #3
    ID : 4
    Format : DTS XLL
    Format/Info : Digital Theater Systems
    Commercial name : DTS-HD Master Audio
    Codec ID : A_DTS
    Duration : 2 h 18 min
    Bit rate mode : Variable
    Bit rate : 4 232 kb/s
    Channel(s) : 6 channels
    Channel layout : C L R Ls Rs LFE
    Sampling rate : 48.0 kHz
    Frame rate : 93.750 FPS (512 SPF)
    Bit depth : 24 bits
    Compression mode : Lossless
    Stream size : 4.08 GiB (7%)
    Title : AVO А.Гаврилов
    Language : Russian
    Default : No
    Forced : No
    Audio #4
    ID : 5
    Format : DTS XLL
    Format/Info : Digital Theater Systems
    Commercial name : DTS-HD Master Audio
    Codec ID : A_DTS
    Duration : 2 h 18 min
    Bit rate mode : Variable
    Bit rate : 4 205 kb/s
    Channel(s) : 6 channels
    Channel layout : C L R Ls Rs LFE
    Sampling rate : 48.0 kHz
    Frame rate : 93.750 FPS (512 SPF)
    Bit depth : 24 bits
    Compression mode : Lossless
    Stream size : 4.06 GiB (7%)
    Title : AVO Ю.Сербин
    Language : Russian
    Default : No
    Forced : No
    Audio #5
    ID : 6
    Format : DTS XLL
    Format/Info : Digital Theater Systems
    Commercial name : DTS-HD Master Audio
    Codec ID : A_DTS
    Duration : 2 h 18 min
    Bit rate mode : Variable
    Bit rate : 4 725 kb/s
    Channel(s) : 6 channels
    Channel layout : C L R Ls Rs LFE
    Sampling rate : 48.0 kHz
    Frame rate : 93.750 FPS (512 SPF)
    Bit depth : 24 bits
    Compression mode : Lossless
    Stream size : 4.56 GiB (8%)
    Title : Original
    Language : English
    Default : No
    Forced : No
    Audio #6
    ID : 7
    Format : AC-3
    Format/Info : Audio Coding 3
    Commercial name : Dolby Digital
    Codec ID : A_AC3
    Duration : 2 h 18 min
    Bit rate mode : Constant
    Bit rate : 640 kb/s
    Channel(s) : 6 channels
    Channel layout : L R C LFE Ls Rs
    Sampling rate : 48.0 kHz
    Frame rate : 31.250 FPS (1536 SPF)
    Bit depth : 16 bits
    Compression mode : Lossy
    Stream size : 632 MiB (1%)
    Title : Original
    Language : English
    Service kind : Complete Main
    Default : No
    Forced : No
    Text #1
    ID : 8
    Format : PGS
    Muxing mode : zlib
    Codec ID : S_HDMV/PGS
    Codec ID/Info : Picture based subtitle format used on BDs/HD-DVDs
    Duration : 2 h 9 min
    Bit rate : 49.4 kb/s
    Count of elements : 3162
    Stream size : 45.6 MiB (0%)
    Title : Dub (Stevvie)
    Language : Russian
    Default : Yes
    Forced : No
    Text #2
    ID : 9
    Format : PGS
    Muxing mode : zlib
    Codec ID : S_HDMV/PGS
    Codec ID/Info : Picture based subtitle format used on BDs/HD-DVDs
    Duration : 2 h 11 min
    Bit rate : 54.8 kb/s
    Count of elements : 3094
    Stream size : 51.5 MiB (0%)
    Title : Voronine
    Language : Russian
    Default : No
    Forced : No
    Text #3
    ID : 10
    Format : PGS
    Muxing mode : zlib
    Codec ID : S_HDMV/PGS
    Codec ID/Info : Picture based subtitle format used on BDs/HD-DVDs
    Duration : 2 h 11 min
    Bit rate : 54.9 kb/s
    Count of elements : 3094
    Stream size : 51.6 MiB (0%)
    Title : Voronine Colored
    Language : Russian
    Default : No
    Forced : No
    Text #4
    ID : 11
    Format : PGS
    Muxing mode : zlib
    Codec ID : S_HDMV/PGS
    Codec ID/Info : Picture based subtitle format used on BDs/HD-DVDs
    Duration : 2 h 11 min
    Bit rate : 56.1 kb/s
    Count of elements : 3184
    Stream size : 52.7 MiB (0%)
    Title : Voronine Hearing Impaired Colored
    Language : Russian
    Default : No
    Forced : No
    Text #5
    ID : 12
    Format : PGS
    Muxing mode : zlib
    Codec ID : S_HDMV/PGS
    Codec ID/Info : Picture based subtitle format used on BDs/HD-DVDs
    Duration : 2 h 8 min
    Bit rate : 35.6 kb/s
    Count of elements : 3114
    Stream size : 32.7 MiB (0%)
    Title : Full
    Language : English
    Default : No
    Forced : No
    Text #6
    ID : 13
    Format : PGS
    Muxing mode : zlib
    Codec ID : S_HDMV/PGS
    Codec ID/Info : Picture based subtitle format used on BDs/HD-DVDs
    Duration : 2 h 8 min
    Bit rate : 37.9 kb/s
    Count of elements : 3322
    Stream size : 34.8 MiB (0%)
    Title : SDH
    Language : English
    Default : No
    Forced : No
    Menu
    00: 00: 00.000 : : Chapter 1
    00: 06: 33.142 : : Chapter 2
    00: 13: 07.787 : : Chapter 3
    00: 20: 20.928 : : Chapter 4
    00: 26: 35.635 : : Chapter 5
    00: 34: 54.801 : : Chapter 6
    00: 41: 23.522 : : Chapter 7
    00: 48: 29.573 : : Chapter 8
    00: 55: 17.897 : : Chapter 9
    01: 04: 02.672 : : Chapter 10
    01: 10: 05.409 : : Chapter 11
    01: 16: 54.401 : : Chapter 12
    01: 23: 05.730 : : Chapter 13
    01: 31: 37.742 : : Chapter 14
    01: 37: 29.718 : : Chapter 15
    01: 45: 39.082 : : Chapter 16
    01: 52: 29.784 : : Chapter 17
    01: 57: 39.969 : : Chapter 18
    02: 03: 50.923 : : Chapter 19
    02: 10: 30.989 : : Chapter 20
    YouTube
    Диск на Blu-ray.com
    Просмотр 4K HDR-контента на ПК

    Скриншоты для ознакомления


    Релизы фильма Остров проклятых/Shutter Island на NNM Club
    Время раздачи: с 9: 00 до 23: 00


    Онлайн видео Остров проклятых



    Остров проклятых/Shutter Island (2010) UHD BDRemux [H.265/2160p] [4K, HDR, 10-bit]
    Рейтинг →
     (голосов: 1, оценка 3/5, голосовать можно 1 раз )

    Другие торренты по теме:

  • Остров проклятых / Shutter Island (2010) BDRip [1080p] скачать через торрент бесплатно
  • Остров проклятых / Shutter Island (2010) BDRip [H.264] скачать через торрент бесплатно
  • Остров проклятых / Shutter Island (2010) DVD5
  • Остров проклятых / Shutter Island (2009) BDRip [H.264 / 1080p-LQ] скачать через торрент бесплатно
  • Остров проклятых / Shutter Island (2010) BDRip [720p]
  • Остров проклятых / Shutter Island (2010) Blu-ray [H.264 / 1080p] [Collectors Edition] скачать через торрент бесплатно
  • Остров проклятых / Shutter Island (2010) UHD Blu-Ray [H.265 / 2160p] [4K, HDR, Dolby Vision, 10-bit] [Custom]


    • Комментарии (0):

      Информация

      Информация

        Посетители, находящиеся в группе Гости, не могут оставлять комментарии в данной новости.

        ↓ Меню




        ↓ Опрос

        Вы добавили сайт в закладки?
        Да
        Нет


        Top 10 за месяц (Фильмы)