.
Авторизация | Регистрация
Хочешь лучшие торренты? Добавь свой email!
Добавить

Торрент скачать бесплатно

  • support: webmaster@btracker.club
» » Мег: Монстр глубины / The Meg (2018) WEB-DLRip [H.264 / 720p-LQ] торрент скачать бесплатно


    Мег: Монстр глубины / The Meg (2018) WEB-DLRip [H.264 / 720p-LQ] торрент скачать бесплатно

    Опубликовал: fregat | Дата: 1-11-2018, 05:00 | .torrent скачали: 0

    Мег: Монстр глубины / The Meg (2018) WEB-DLRip [H.264 / 720p-LQ]Производство: США, Китай/Apelles Entertainmentm, Di Bonaventura Pictures, Flagship Entertainment Group, Gravity Pictures, Maeday Productions
    Жанр: Ужасы, Фантастика, Триллер
    Режиссер: Джон Тёртлтауб
    Продюсер: Кеннет Этчити, Белль Эйвери, Чэнь Цзе

    Актеры
    Джейсон Стэйтем, Ли Бинбин, Рэйн Уилсон, Клифф Кёртис, Уинстон Чао, Шуя Софиа Цай, Руби Роуз, Пейдж Кеннеди, Роберт Тейлор, Оулавюр Дарри Оулафссон

    Описание

    Глубоководный батискаф, осуществляющий наблюдение в рамках международной программы по изучению подводной жизни, был атакован огромным существом, которое все считали давно вымершим. Неисправный аппарат теперь лежит на дне глубочайшей впадины Тихого океана… с оказавшимся в ловушке экипажем. Их время на исходе. Китайский океанограф-новатор, несмотря на протесты его дочери Суинь, зовет спасателя-подводника Джонаса Тейлора, чтобы тот помог спасти команду и океан от невиданной угрозы — доисторической 23-метровой акулы, мегалодона. Никто и подумать не мог, что много лет назад Тейлор уже сталкивался с этим чудовищным созданием.

    Возраст: 16+ (зрителям, достигшим 16 лет)
    Рейтинг MPAA: PG-13 (детям до 13 лет просмотр нежелателен)
    Дата мировой премьеры: 8 августа 2018
    Дата российской премьеры: 9 августа 2018, Каро-Премьер
    Релиз от: NNMClub
    Продолжительность: 01: 53: 11
    Качество видео: WEB-DLRip (batonchik )
    Перевод: Дублированный (iTunes)
    Субтитры: Русские (Forced, Full)
    Видео: AVC/H.264, 1280x532 (2.40: 1), ~ 2369 Kbps, 23.976 fps
    Аудио: AC3, 6 ch, 384 Kbps | Русский

    General
    Complete name : The Meg (2018) WEBRip.H.264.720p.LQ.NNMClub.mkv
    Format : Matroska
    Format version : Version 4/Version 2
    File size : 2.18 GiB
    Duration : 1 h 53 min
    Overall bit rate : 2 754 kb/s
    Movie name : The Meg (2018) WEBRip.H.264.720p.LQ.NNMClub
    Encoded date : UTC 2018-10-31 06: 18: 02
    Writing application : mkvmerge v28.2.0 ('The Awakening') 64-bit
    Writing library : libebml v1.3.6 + libmatroska v1.4.9
    Video
    ID : 1
    Format : AVC
    Format/Info : Advanced Video Codec
    Format profile : High@L4.1
    Format settings : CABAC/7 Ref Frames
    Format settings, CABAC : Yes
    Format settings, ReFrames : 7 frames
    Codec ID : V_MPEG4/ISO/AVC
    Duration : 1 h 53 min
    Bit rate : 2 369 kb/s
    Width : 1 280 pixels
    Height : 532 pixels
    Display aspect ratio : 2.40: 1
    Frame rate mode : Constant
    Frame rate : 23.976 (24000/1001) FPS
    Color space : YUV
    Chroma subsampling : 4: 2: 0
    Bit depth : 8 bits
    Scan type : Progressive
    Bits/(Pixel*Frame) : 0.145
    Stream size : 1.87 GiB (86%)
    Title : The Meg (2018) WEBRip.H.264.720p.LQ.NNMClub
    Writing library : x264 core 157 r2935 545de2f
    Encoding settings : cabac=1/ref=7/deblock=1: -3: -3/analyse=0x3: 0x133/me=umh/subme=10/psy=1/psy_rd=1.00: 0.25/mixed_ref=1/me_range=32/chroma_me=1/trellis=2/8x8dct=1/cqm=0/deadzone=6, 6/fast_pskip=0/chroma_qp_offset=-4/threads=12/lookahead_threads=2/sliced_threads=0/nr=0/decimate=0/interlaced=0/bluray_compat=0/constrained_intra=0/bframes=9/b_pyramid=2/b_adapt=2/b_bias=0/direct=1/weightb=1/open_gop=0/weightp=2/keyint=240/keyint_min=23/scenecut=40/intra_refresh=0/rc_lookahead=40/rc=2pass/mbtree=1/bitrate=2369/ratetol=1.0/qcomp=0.60/qpmin=0/qpmax=69/qpstep=4/cplxblur=20.0/qblur=0.5/vbv_maxrate=50000/vbv_bufsize=62500/nal_hrd=none/filler=0/ip_ratio=1.10/aq=3: 0.80
    Language : English
    Default : Yes
    Forced : No
    Audio
    ID : 2
    Format : AC-3
    Format/Info : Audio Coding 3
    Codec ID : A_AC3
    Duration : 1 h 53 min
    Bit rate mode : Constant
    Bit rate : 384 kb/s
    Channel(s) : 6 channels
    Channel positions : Front: L C R, Side: L R, LFE
    Sampling rate : 48.0 kHz
    Frame rate : 31.250 FPS (1536 SPF)
    Bit depth : 16 bits
    Compression mode : Lossy
    Stream size : 311 MiB (14%)
    Title : Дублированный (iTunes)
    Language : Russian
    Service kind : Complete Main
    Default : Yes
    Forced : No
    Text #1
    ID : 3
    Format : UTF-8
    Codec ID : S_TEXT/UTF8
    Codec ID/Info : UTF-8 Plain Text
    Duration : 1 h 41 min
    Bit rate : 5 b/s
    Count of elements : 97
    Stream size : 3.81 KiB (0%)
    Title : Форс.
    Language : Russian
    Default : Yes
    Forced : No
    Text #2
    ID : 4
    Format : UTF-8
    Codec ID : S_TEXT/UTF8
    Codec ID/Info : UTF-8 Plain Text
    Duration : 1 h 52 min
    Bit rate : 78 b/s
    Count of elements : 1203
    Stream size : 64.6 KiB (0%)
    Title : Полные
    Language : Russian
    Default : No
    Forced : No
    Menu
    00: 00: 00.000 : en: 1
    00: 08: 48.000 : en: 2
    00: 18: 14.000 : en: 3
    00: 27: 10.000 : en: 4
    00: 39: 31.000 : en: 5
    00: 49: 11.000 : en: 6
    00: 58: 01.000 : en: 7
    01: 08: 23.000 : en: 8
    01: 19: 46.000 : en: 9
    01: 30: 04.000 : en: 10
    01: 42: 43.000 : en: 11

    Скриншоты для ознакомления



    Все одноименные релизы в Клубе
    Время раздачи: 24/7 (круглосуточно) (до появления первых 3-5 скачавших)


    Онлайн видео Мег: Монстр глубины



    Мег: Монстр глубины/The Meg (2018) WEB-DLRip [H.264/720p-LQ]
    Рейтинг →
     (голосов: 1, оценка 3/5, голосовать можно 1 раз )

    Другие торренты по теме:

  • Мег: Монстр глубины / The Meg (2018) CamRip [AD]
  • Мег: Монстр глубины / The Meg (2018) WEBRip [H.264 / 1080p-LQ] [EN / KOR Sub]
  • Мег: Монстр глубины / The Meg (2018) WEBRip [H.264 / 1080p-LQ] [MVO, AD]
  • Мег: Монстр глубины / The Meg (2018) WEBRip [Звук с TS] [AD]
  • Мег: Монстр глубины / The Meg (2018) WEBRip [H.264 / 720p-LQ] [Звук с TS] [AD]
  • Мег: Монстр глубины / The Meg (2018) WEBRip [MVO]
  • Мег: Монстр глубины / The Meg (2018) WEBRip [H.264 / 1080p-LQ] [MVO]
  • Мег: Монстр глубины / The Meg (2018) WEBRip [H.264 / 720p-LQ] [MVO]


    • Комментарии (0):

      Информация

      Информация

        Посетители, находящиеся в группе Гости, не могут оставлять комментарии в данной новости.

        ↓ Меню




        ↓ Опрос

        Вы добавили сайт в закладки?
        Да
        Нет


        Top 10 за месяц (Фильмы)