.
Авторизация | Регистрация
Хочешь лучшие торренты? Добавь свой email!
Добавить

Торрент скачать бесплатно

  • support: webmaster@btracker.club
» » Клуб любителей книг и пирогов из картофельных очистков / The Guernsey Literary and Potato Peel Pie Society (2018) BDRip [H.264 / 1080p] [MVO] [PR] торрент скачать бесплатно


    Клуб любителей книг и пирогов из картофельных очистков / The Guernsey Literary and Potato Peel Pie Society (2018) BDRip [H.264 / 1080p] [MVO] [PR] торрент скачать бесплатно

    Опубликовал: fregat | Дата: 1-11-2018, 05:00 | .torrent скачали: 0

    Клуб любителей книг и пирогов из картофельных очистков / The Guernsey Literary and Potato Peel Pie Society (2018) BDRip [H.264 / 1080p] [MVO] [PR]Производство: Великобритания, Франция, США
    Жанр: Драма, Мелодрама
    Режиссер: Майк Ньюэлл
    Продюсер: Грэм Бродбент, Митчелл Каплан, Паула Мазур

    Актеры
    Лили Джеймс, Михил Хаушман, Глен Пауэлл, Джессика Браун-Финдли, Кэтрин Паркинсон, Мэттью Гуд, Том Кортни, Пенелопа Уилтон, Брона Галлахер, Кит Коннор

    Описание

    В послевоенном Лондоне молодая писательница Джулиет пытается найти сюжет для новой книги, но об ужасах войны писать ей решительно не хочется, прочие темы кажутся либо скучными, либо неуместными. На помощь приходит случай — в виде письма одного свиновода с острова Гернси. Оказывается, даже свинари любят почитать, и неведомый Доуси, к которому в руки попала книга, некогда принадлежавшая Джулиет, просит ее посоветовать хорошую книжную лавку. Дело в том, что на Гернси с книгами сейчас туго, поскольку остров, в годы войны оккупированный немцами, только-только возрождается к жизни. Письмо переворачивает жизнь Джулиет. История книжного клуба, ставшего прикрытием для запрещенных встреч жителей деревни, увлекает и затягивает ее. Так начинается переписка с самыми разными людьми.

    Дата мировой премьеры: 9 апреля 2018
    Дата российской премьеры: 14 февраля 2019, Пионер
    Продолжительность: 02: 03: 27
    Качество видео: BDRip
    Перевод: Многоголосый закадровый, профессиональный
    Озвучка/Автор перевода: Jaskier
    Субтитры: русские, английские (SDH)
    Видео: AVC/H.264, 1920х1040, ~8104 Kbps
    Аудио 1: AC3, 6 ch, 448 Kbps | русский
    Аудио 2: AC3, 6 ch, 640 Kbps | английский

    Общее
    Уникальный идентификатор : 196906019948337453730085902733474029318 (0x9422B8523D1476348A10F3E5CF3C5F06)
    Полное имя : D: FILMЬlThe.Guernsey Literary and Potato Peel Pie Society.mkv
    Формат : Matroska
    Версия формата : Version 4/Version 2
    Размер файла : 7, 93 Гбайт
    Продолжительность : 2 ч. 3 м.
    Общий поток : 9193 Кбит/сек
    Дата кодирования : UTC 2018-10-31 00: 23: 22
    Программа кодирования : mkvmerge v23.0.0 ('The Bride Said No') 64-bit
    Библиотека кодирования : libebml v1.3.6 + libmatroska v1.4.9
    Видео
    Идентификатор : 1
    Формат : AVC
    Формат/Информация : Advanced Video Codec
    Профиль формата : High@L4.1
    Настройки формата : CABAC/4 Ref Frames
    Параметр CABAC формата : Да
    Параметр RefFrames формата : 4 кадра
    Идентификатор кодека : V_MPEG4/ISO/AVC
    Продолжительность : 2 ч. 3 м.
    Битрейт : 8104 Кбит/сек
    Ширина : 1920 пикселей
    Высота : 1040 пикселей
    Соотношение сторон : 1, 85: 1
    Режим частоты кадров : Постоянный
    Частота кадров : 24, 000 кадра/сек
    Цветовое пространство : YUV
    Субдискретизация насыщенности : 4: 2: 0
    Битовая глубина : 8 бит
    Тип развёртки : Прогрессивная
    Бит/(Пиксели*Кадры) : 0.169
    Размер потока : 6, 99 Гбайт (88%)
    Библиотека кодирования : x264 core 157 r2932 303c484
    Настройки программы : cabac=1/ref=4/deblock=1: -3: -3/analyse=0x3: 0x113/me=umh/subme=8/psy=1/psy_rd=1.00: 0.00/mixed_ref=1/me_range=32/chroma_me=1/trellis=2/8x8dct=1/cqm=0/deadzone=21, 11/fast_pskip=1/chroma_qp_offset=-2/threads=32/lookahead_threads=5/sliced_threads=0/nr=0/decimate=1/interlaced=0/bluray_compat=0/constrained_intra=0/bframes=3/b_pyramid=2/b_adapt=2/b_bias=0/direct=3/weightb=1/open_gop=0/weightp=2/keyint=240/keyint_min=24/scenecut=40/intra_refresh=0/rc_lookahead=50/rc=2pass/mbtree=1/bitrate=8104/ratetol=1.0/qcomp=0.60/qpmin=0/qpmax=69/qpstep=4/cplxblur=20.0/qblur=0.5/ip_ratio=1.40/aq=3: 0.80
    Default : Да
    Forced : Нет
    Аудио #1
    Идентификатор : 2
    Формат : AC-3
    Формат/Информация : Audio Coding 3
    Идентификатор кодека : A_AC3
    Продолжительность : 2 ч. 3 м.
    Вид битрейта : Постоянный
    Битрейт : 448 Кбит/сек
    Каналы : 6 каналов
    Расположение каналов : Front: L C R, Side: L R, LFE
    Частота : 48, 0 КГц
    Частота кадров : 31, 250 кадров/сек (1536 SPF)
    Битовая глубина : 16 бит
    Метод сжатия : С потерями
    Размер потока : 396 Мбайт (5%)
    Язык : Russian
    ServiceKind/String : Complete Main
    Default : Да
    Forced : Нет
    Аудио #2
    Идентификатор : 3
    Формат : AC-3
    Формат/Информация : Audio Coding 3
    Идентификатор кодека : A_AC3
    Продолжительность : 2 ч. 3 м.
    Вид битрейта : Постоянный
    Битрейт : 640 Кбит/сек
    Каналы : 6 каналов
    Расположение каналов : Front: L C R, Side: L R, LFE
    Частота : 48, 0 КГц
    Частота кадров : 31, 250 кадров/сек (1536 SPF)
    Битовая глубина : 16 бит
    Метод сжатия : С потерями
    Размер потока : 565 Мбайт (7%)
    Язык : English
    ServiceKind/String : Complete Main
    Default : Нет
    Forced : Нет
    Текст #1
    Идентификатор : 4
    Формат : UTF-8
    Идентификатор кодека : S_TEXT/UTF8
    Идентификатор кодека/Информация : UTF-8 Plain Text
    Продолжительность : 1 ч. 59 м.
    Битрейт : 97 бит/сек
    ElementCount : 1764
    Размер потока : 85, 5 Кбайт (0%)
    Язык : Russian
    Default : Нет
    Forced : Нет
    Текст #2
    Идентификатор : 5
    Формат : UTF-8
    Идентификатор кодека : S_TEXT/UTF8
    Идентификатор кодека/Информация : UTF-8 Plain Text
    Продолжительность : 1 ч. 59 м.
    Битрейт : 66 бит/сек
    ElementCount : 1661
    Размер потока : 58, 0 Кбайт (0%)
    Заголовок : SDH
    Язык : English
    Default : Нет
    Forced : Нет

    Скриншоты для ознакомления



    Все одноименные релизы в Клубе
    Время раздачи: С 09: 00 до 23: 30 (до появления первых 3-5 скачавших)


    Онлайн видео Клуб любителей книг и пирогов из картофельных очистков



    Клуб любителей книг и пирогов из картофельных очистков/The Guernsey Literary and Potato Peel Pie Society (2018) BDRip [H.264/1080p] [MVO] [PR]
    Рейтинг →
     (голосов: 1, оценка 5/5, голосовать можно 1 раз )

    Другие торренты по теме:

  • Нина Хеймец | Клуб любителей диафильмов [сборник] (2015) [FB2] скачать через торрент бесплатно
  • Мэри Энн Шеффер & Энни Бэрроуз | Клуб любителей книг и пирогов из картофельных очистков (2015) [MP3]
  • Александр Долгов | Рижский клуб любителей хронопортации (2017) [FB2, EPUB]
  • Клуб любителей книг и пирогов из картофельных очистков / The Guernsey Literary and Potato Peel Pie Society (2018) BDRemux [H.264 / 1080p] [EN / EN Sub]
  • Клуб любителей книг и пирогов из картофельных очистков / The Guernsey Literary and Potato Peel Pie Society (2018) WEB-DLRip [MVO] [AD]


    • Комментарии (0):

      Информация

      Информация

        Посетители, находящиеся в группе Гости, не могут оставлять комментарии в данной новости.

        ↓ Меню




        ↓ Опрос

        Вы добавили сайт в закладки?
        Да
        Нет


        Top 10 за месяц (Фильмы)