.
Авторизация | Регистрация
Хочешь лучшие торренты? Добавь свой email!
Добавить

Торрент скачать бесплатно

  • support: webmaster@btracker.club
» » Простите за беспокойство / Sorry to Bother You (2018) BDRip [H.264 / 1080p] [MVO] торрент скачать бесплатно


    Простите за беспокойство / Sorry to Bother You (2018) BDRip [H.264 / 1080p] [MVO] торрент скачать бесплатно

    Опубликовал: fregat | Дата: 1-11-2018, 05:00 | .torrent скачали: 0

    Простите за беспокойство / Sorry to Bother You (2018) BDRip [H.264 / 1080p] [MVO]Производство: США/Cinereach, Forest Whitaker's Significant Productions, MACRO
    Жанр: Комедия, Фантастика
    Режиссер: Бутс Райли

    Актеры
    Лейкит Стэнфилд, Тесса Томпсон, Жермен Фаулер, Омари Хардвик, Терри Крюс, Кейт Берлант, Майкл И. Соммерс, Дэнни Гловер, Стивен Юн, Арми Хаммер

    Описание

    Темнокожий житель Окленда Кассиус Грин живет в гараже у родного дяди, которого со дня на день могут лишить жилья за долги, поэтому парень устраивается туда, куда берут всех — в колл-центр. Обзванивая потенциальных покупателей, Кассиус сталкивается с тотальным безразличием, когда получает совет от бывалого коллеги использовать так называемый белый голос. С этого момента его продажи растут, и жизнь меняется, но в это время недовольные системой оплаты коллеги решают устроить забастовку и основать профсоюз.

    Возраст: 18+ (зрителям, достигшим 18 лет. запрещено для детей)
    Рейтинг MPAA: R (лицам до 17 лет обязательно присутствие взрослого)
    Дата мировой премьеры: 13 июля 2018
    Релиз от: TeamHD
    Продолжительность: 01: 50: 47
    Качество видео: BDRip
    Перевод: Многоголосый закадровый, профессиональный (HDRezka Studio )
    Субтитры: Английские (full, SDH)
    Видео: AVC/H.264, 1920x804, ~15, 6 Mbps
    Аудио #1: AC3, 2 ch, 192 Kbps | русский, многоголосый закадровый
    Аудио #2: AC3, 6 ch, 640 Kbps | английский

    Общее
    Уникальный идентификатор : 4986095013159312334250534586387380764 (0x3C04976CF40B7709AC770CD4009BA1C)
    Полное имя : C: UsersUserDesktopNNMClubSorry.to.Bother.You.2018.1080p.BluRay.Rus.Eng.TeamHD-playHD.mkv
    Формат : Matroska
    Версия формата : Version 4
    Размер файла : 12, 7 Гбайт
    Продолжительность : 1 ч. 50 м.
    Общий поток : 16, 4 Мбит/сек
    Название фильма : Sorry to Bother You 2018 TeamHD-селезень
    Дата кодирования : UTC 2018-10-30 01: 08: 17
    Программа кодирования : mkvmerge v28.0.0 ('Voice In My Head') 64-bit
    Библиотека кодирования : libebml v1.3.6 + libmatroska v1.4.9
    Видео
    Идентификатор : 1
    Формат : AVC
    Формат/Информация : Advanced Video Codec
    Профиль формата : High@L4.1
    Настройки формата : CABAC/5 Ref Frames
    Параметр CABAC формата : Да
    Параметр RefFrames формата : 5 кадров
    Идентификатор кодека : V_MPEG4/ISO/AVC
    Продолжительность : 1 ч. 50 м.
    Битрейт : 15, 3 Мбит/сек
    Ширина : 1920 пикселей
    Высота : 804 пикселя
    Соотношение сторон : 2, 40: 1
    Режим частоты кадров : Постоянный
    Частота кадров : 23, 976 (24000/1001) кадра/сек
    Цветовое пространство : YUV
    Субдискретизация насыщенности : 4: 2: 0
    Битовая глубина : 8 бит
    Тип развёртки : Прогрессивная
    Бит/(Пиксели*Кадры) : 0.413
    Размер потока : 11, 8 Гбайт (93%)
    Заголовок : playHD
    Библиотека кодирования : x264 core 155 r2867+82 a249126 t_mod_Custom_2 8-bit@all X86_64
    Настройки программы : cabac=1/ref=5/deblock=1: -3: -3/analyse=0x3: 0x133/me=umh/subme=10/psy=1/fade_compensate=0.00/psy_rd=1.00: 0.00/mixed_ref=1/me_range=32/chroma_me=1/trellis=2/8x8dct=1/cqm=0/deadzone=21, 11/fast_pskip=0/chroma_qp_offset=-2/threads=12/lookahead_threads=2/sliced_threads=0/nr=0/decimate=0/interlaced=0/bluray_compat=0/constrained_intra=0/fgo=0/bframes=8/b_pyramid=2/b_adapt=2/b_bias=0/direct=3/weightb=1/open_gop=0/weightp=2/keyint=250/keyint_min=23/scenecut=40/intra_refresh=0/rc_lookahead=60/rc=crf/mbtree=0/crf=15.0000/qcomp=0.65/qpmin=0: 0: 0/qpmax=69: 69: 69/qpstep=4/vbv_maxrate=62500/vbv_bufsize=78125/crf_max=0.0/nal_hrd=none/filler=0/ip_ratio=1.20/pb_ratio=1.15/aq=3: 0.95/aq-sensitivity=10.00/aq-factor=1.00: 1.00: 1.00/aq2=0/aq3=0/zones=152203, 159382, b=0.7
    Язык : English
    Default : Да
    Forced : Нет
    Аудио #1
    Идентификатор : 2
    Формат : AC-3
    Формат/Информация : Audio Coding 3
    Коммерческое название : Dolby Digital
    Идентификатор кодека : A_AC3
    Продолжительность : 1 ч. 50 м.
    Вид битрейта : Постоянный
    Битрейт : 192 Кбит/сек
    Каналы : 2 канала
    Channel layout : L R
    Частота : 48, 0 КГц
    Частота кадров : 31, 250 кадров/сек (1536 SPF)
    Битовая глубина : 16 бит
    Метод сжатия : С потерями
    Размер потока : 152 Мбайт (1%)
    Заголовок : MVO HDRezka Studio
    Язык : Russian
    ServiceKind/String : Complete Main
    Default : Да
    Forced : Да
    Аудио #2
    Идентификатор : 3
    Формат : AC-3
    Формат/Информация : Audio Coding 3
    Коммерческое название : Dolby Digital
    Идентификатор кодека : A_AC3
    Продолжительность : 1 ч. 50 м.
    Вид битрейта : Постоянный
    Битрейт : 640 Кбит/сек
    Каналы : 6 каналов
    Channel layout : L R C LFE Ls Rs
    Частота : 48, 0 КГц
    Частота кадров : 31, 250 кадров/сек (1536 SPF)
    Битовая глубина : 16 бит
    Метод сжатия : С потерями
    Размер потока : 507 Мбайт (4%)
    Заголовок : Original
    Язык : English
    ServiceKind/String : Complete Main
    Default : Нет
    Forced : Нет
    Текст #1
    Идентификатор : 4
    Формат : UTF-8
    Идентификатор кодека : S_TEXT/UTF8
    Идентификатор кодека/Информация : UTF-8 Plain Text
    Заголовок : Full
    Язык : English
    Default : Нет
    Forced : Нет
    Текст #2
    Идентификатор : 5
    Формат : UTF-8
    Идентификатор кодека : S_TEXT/UTF8
    Идентификатор кодека/Информация : UTF-8 Plain Text
    Заголовок : SDH
    Язык : English
    Default : Нет
    Forced : Нет
    Меню
    00: 00: 00.000 : en: 00: 00: 00.000
    00: 03: 35.340 : en: 00: 03: 35.340
    00: 07: 31.493 : en: 00: 07: 31.493
    00: 13: 04.325 : en: 00: 13: 04.325
    00: 18: 54.800 : en: 00: 18: 54.800
    00: 26: 37.638 : en: 00: 26: 37.638
    00: 32: 27.946 : en: 00: 32: 27.946
    00: 37: 08.268 : en: 00: 37: 08.268
    00: 40: 08.615 : en: 00: 40: 08.615
    00: 43: 46.374 : en: 00: 43: 46.374
    00: 46: 59.191 : en: 00: 46: 59.191
    00: 49: 18.831 : en: 00: 49: 18.831
    00: 52: 30.939 : en: 00: 52: 30.939
    00: 57: 29.780 : en: 00: 57: 29.780
    01: 00: 18.490 : en: 01: 00: 18.490
    01: 05: 14.202 : en: 01: 05: 14.202
    01: 07: 52.485 : en: 01: 07: 52.485
    01: 13: 48.299 : en: 01: 13: 48.299
    01: 17: 13.128 : en: 01: 17: 13.128
    01: 21: 46.902 : en: 01: 21: 46.902
    01: 27: 03.343 : en: 01: 27: 03.343
    01: 31: 37.409 : en: 01: 31: 37.409
    01: 38: 49.132 : en: 01: 38: 49.132
    01: 44: 59.752 : en: 01: 44: 59.752

    Скриншоты для ознакомления



    Все одноименные релизы в Клубе
    Время раздачи: 24/7 (до появления первых 3-5 скачавших)


    Онлайн видео Простите за беспокойство



    Простите за беспокойство/Sorry to Bother You (2018) BDRip [H.264/1080p] [MVO]
    Рейтинг →
     (голосов: 1, оценка 5/5, голосовать можно 1 раз )

    Другие торренты по теме:

  • Простите за беспокойство / Sorry to Bother You (2018) BDRip [MVO]
  • Простите за беспокойство / Sorry to Bother You (2018) BDRip [H.264 / 720p] [MVO]


    • Комментарии (0):

      Информация

      Информация

        Посетители, находящиеся в группе Гости, не могут оставлять комментарии в данной новости.

        ↓ Меню




        ↓ Опрос

        Вы добавили сайт в закладки?
        Да
        Нет


        Top 10 за месяц (Фильмы)