.
Авторизация | Регистрация
Хочешь лучшие торренты? Добавь свой email!
Добавить

Торрент скачать бесплатно

  • support: webmaster@btracker.club
» » Планета зверей / Dong wu shi jie (2018) WEB-DLRip [H.264 / 720p-LQ] [MVO] торрент скачать бесплатно


    Планета зверей / Dong wu shi jie (2018) WEB-DLRip [H.264 / 720p-LQ] [MVO] торрент скачать бесплатно

    Опубликовал: fregat | Дата: 1-11-2018, 05:00 | .torrent скачали: 0

    Планета зверей / Dong wu shi jie (2018) WEB-DLRip [H.264 / 720p-LQ] [MVO]Производство: Китай/Beijing Ruyi Xinxin Film Investment, Enlight Pictures
    Жанр: Драма, приключения, триллер, фантастика
    Режиссер: Хань Янь

    Актеры
    Ли Ифэн, Чжоу Дунъюй, Майкл Дуглас, Кевин Ли, Эрик Хейз, Альберто Ланселлотти...

    Описание

    Фильм рассказывает историю человека, который очень сильно увяз в долгах, в следствии чего, у него попросту не оставалось иного выбора, как принять участие в таинственных играх Число судьбы, что стало для него весьма отчаянным шагом, ведь ставкой в играх является собственная жизнь.

    Возраст: 16+ (зрителям, достигшим 16 лет)
    Дата мировой премьеры: 28 июня 2018
    Дата премьеры в России: 2 августа 2018


    Релиз от:
    NNMClub
    Продолжительность: 02: 10: 19
    Качество видео: WEB-DLRip (batonchik )
    Перевод: Многоголосый закадровый, профессиональный (HDrezka Studio)
    Субтитры: Английские (Fulll)
    Видео: AVC/H.264, 1280x480, ~ 2 056 kbps
    Аудио: AC3, 2 ch, 192 kbps - Русский

    General
    Complete name : Планета зверей_Animal World 2018 WEB-DL.720p.LQ.NNMClib.mkv
    Format : Matroska
    Format version : Version 4/Version 2
    File size : 2.05 GiB
    Duration : 2 h 10 min
    Overall bit rate : 2 249 kb/s
    Movie name : Планета зверей_Animal World 2018 WEB-DL.720p.LQ.NNMClib
    Encoded date : UTC 2018-10-31 07: 06: 49
    Writing application : mkvmerge v28.2.0 ('The Awakening') 64-bit
    Writing library : libebml v1.3.6 + libmatroska v1.4.9
    Video
    ID : 1
    Format : AVC
    Format/Info : Advanced Video Codec
    Format profile : High@L4.1
    Format settings : CABAC/8 Ref Frames
    Format settings, CABAC : Yes
    Format settings, ReFrames : 8 frames
    Codec ID : V_MPEG4/ISO/AVC
    Duration : 2 h 10 min
    Bit rate : 2 056 kb/s
    Width : 1 280 pixels
    Height : 480 pixels
    Display aspect ratio : 2.667
    Frame rate mode : Constant
    Frame rate : 24.000 FPS
    Color space : YUV
    Chroma subsampling : 4: 2: 0
    Bit depth : 8 bits
    Scan type : Progressive
    Bits/(Pixel*Frame) : 0.139
    Stream size : 1.87 GiB (91%)
    Title : Планета зверей_Animal World 2018 WEB-DL.720p.LQ.NNMClib
    Writing library : x264 core 157 r2935 545de2f
    Encoding settings : cabac=1/ref=8/deblock=1: -3: -3/analyse=0x3: 0x133/me=umh/subme=11/psy=1/psy_rd=1.00: 0.25/mixed_ref=1/me_range=32/chroma_me=1/trellis=2/8x8dct=1/cqm=0/deadzone=6, 6/fast_pskip=0/chroma_qp_offset=-4/threads=12/lookahead_threads=3/sliced_threads=0/nr=0/decimate=0/interlaced=0/bluray_compat=0/constrained_intra=0/bframes=10/b_pyramid=2/b_adapt=2/b_bias=0/direct=1/weightb=1/open_gop=0/weightp=2/keyint=240/keyint_min=23/scenecut=40/intra_refresh=0/rc_lookahead=40/rc=2pass/mbtree=1/bitrate=2056/ratetol=1.0/qcomp=0.60/qpmin=0/qpmax=69/qpstep=4/cplxblur=20.0/qblur=0.5/vbv_maxrate=50000/vbv_bufsize=62500/nal_hrd=none/filler=0/ip_ratio=1.10/aq=3: 0.70
    Language : English
    Default : Yes
    Forced : No
    Audio
    ID : 2
    Format : AC-3
    Format/Info : Audio Coding 3
    Codec ID : A_AC3
    Duration : 2 h 10 min
    Bit rate mode : Constant
    Bit rate : 192 kb/s
    Channel(s) : 2 channels
    Channel positions : Front: L R
    Sampling rate : 48.0 kHz
    Frame rate : 31.250 FPS (1536 SPF)
    Bit depth : 16 bits
    Compression mode : Lossy
    Stream size : 179 MiB (9%)
    Title : MVO (HDrezka Studio)
    Language : Russian
    Service kind : Complete Main
    Default : Yes
    Forced : No
    Text
    ID : 3
    Format : UTF-8
    Codec ID : S_TEXT/UTF8
    Codec ID/Info : UTF-8 Plain Text
    Duration : 2 h 2 min
    Bit rate : 39 b/s
    Count of elements : 1339
    Stream size : 35.8 KiB (0%)
    Language : English
    Default : No
    Forced : No

    Скриншоты для ознакомления



    Все одноименные релизы в Клубе Время раздачи: 24/7 (до появления первых 3-5 скачавших)


    Онлайн видео Планета зверей



    Планета зверей/Dong wu shi jie (2018) WEB-DLRip [H.264/720p-LQ] [MVO]
    Рейтинг →
     (голосов: 1, оценка 5/5, голосовать можно 1 раз )

    Другие торренты по теме:

  • Планета зверей / Dong wu shi jie (2018) TS [H.264 / 720p-LQ] [MVO] [AD]
  • Планета зверей / Dong wu shi jie (2018) WEBRip [H.264 / 720p-LQ] [AD]
  • Планета зверей / Dong wu shi jie (2018) WEB-DLRip [MVO]
  • Планета зверей / Dong wu shi jie (2018) WEB-DL [H.264 / 1080p-LQ] [MVO]
  • Планета зверей / Dong wu shi jie (2018) WEB-DL [1080p] MVO
  • Планета зверей / Dong wu shi jie (2018) ac3 5.1 [hand made]


    • Комментарии (0):

      Информация

      Информация

        Посетители, находящиеся в группе Гости, не могут оставлять комментарии в данной новости.

        ↓ Меню




        ↓ Опрос

        Вы добавили сайт в закладки?
        Да
        Нет


        Top 10 за месяц (Фильмы)