.
Авторизация | Регистрация
Хочешь лучшие торренты? Добавь свой email!
Добавить

Торрент скачать бесплатно

  • support: webmaster@btracker.club
» » Великий уравнитель 2 / The Equalizer 2 (2018) WEB-DLRip [H.264 / 720p-LQ] торрент скачать бесплатно


    Великий уравнитель 2 / The Equalizer 2 (2018) WEB-DLRip [H.264 / 720p-LQ] торрент скачать бесплатно

    Опубликовал: fregat | Дата: 1-11-2018, 05:00 | .torrent скачали: 0

    Великий уравнитель 2 / The Equalizer 2 (2018) WEB-DLRip [H.264 / 720p-LQ]Производство: США, Columbia Pictures Corporation, Escape Artists, Fuqua Films, Lonetree Entertainment, Mace Neufeld Productions, Sony Pictures Entertainment, ZHIV Productions
    Жанр: Боевик, Триллер, Криминал
    Режиссер: Антуан Фукуа
    Продюсер: Молли Аллен, Тодд Блэк, Дэвид Дж. Блумфилд

    Актеры
    Дензел Вашингтон, Педро Паскаль, Билл Пуллман, Мелисса Лео, Джонатан Скарф, Сакина Джэффри, Кэролайн Дэй, Орсон Бин, Хайди Гарроу, Эштон Сандерс

    Описание

    Продолжение истории Роберта Маккола, бывшего агента ЦРУ, который самостоятельно вершит правосудие

    Возраст: 18+ (зрителям, достигшим 18 лет. запрещено для детей)
    Рейтинг MPAA: R (лицам до 17 лет обязательно присутствие взрослого)
    Дата мировой премьеры: 19 июля 2018
    Дата российской премьеры: 6 сентября 2018, WDSSPR
    Релиз от: NNMClub
    Продолжительность: 02: 01: 12
    Качество видео: WEB-DLRip (batonchik )
    Перевод: Дублированный (iTunes)
    Субтитры: Русские (Forced, Full)
    Видео: AVC/H.264, 1280x530 (2.40: 1), 2188 kbps, 23.976 fps
    Аудио: АС3, 6 ch, 48 kHz, 384 Kbps | Русский

    General
    Complete name : Великий уравнитель 2_The Equalizer 2 (2018) WEB-DLRip.720p.NNMClub.mkv
    Format : Matroska
    Format version : Version 4/Version 2
    File size : 2.18 GiB
    Duration : 2 h 1 min
    Overall bit rate : 2 573 kb/s
    Movie name : /Великий уравнитель 2_The Equalizer 2 (2018) WEB-DLRip.720p.NNMClub
    Encoded date : UTC 2018-10-31 12: 22: 37
    Writing application : mkvmerge v28.2.0 ('The Awakening') 64-bit
    Writing library : libebml v1.3.6 + libmatroska v1.4.9
    Video
    ID : 1
    Format : AVC
    Format/Info : Advanced Video Codec
    Format profile : High@L4.1
    Format settings : CABAC/7 Ref Frames
    Format settings, CABAC : Yes
    Format settings, ReFrames : 7 frames
    Codec ID : V_MPEG4/ISO/AVC
    Duration : 2 h 1 min
    Bit rate : 2 188 kb/s
    Width : 1 280 pixels
    Height : 530 pixels
    Display aspect ratio : 2.40: 1
    Frame rate mode : Constant
    Frame rate : 23.976 (24000/1001) FPS
    Color space : YUV
    Chroma subsampling : 4: 2: 0
    Bit depth : 8 bits
    Scan type : Progressive
    Bits/(Pixel*Frame) : 0.135
    Stream size : 1.85 GiB (85%)
    Title : /Великий уравнитель 2_The Equalizer 2 (2018) WEB-DLRip.720p.NNMClub
    Writing library : x264 core 157 r2935 545de2f
    Encoding settings : cabac=1/ref=7/deblock=1: -3: -3/analyse=0x3: 0x133/me=umh/subme=10/psy=1/psy_rd=1.00: 0.25/mixed_ref=1/me_range=32/chroma_me=1/trellis=2/8x8dct=1/cqm=0/deadzone=6, 6/fast_pskip=0/chroma_qp_offset=-4/threads=12/lookahead_threads=2/sliced_threads=0/nr=0/decimate=0/interlaced=0/bluray_compat=0/constrained_intra=0/bframes=9/b_pyramid=2/b_adapt=2/b_bias=0/direct=1/weightb=1/open_gop=0/weightp=2/keyint=240/keyint_min=23/scenecut=40/intra_refresh=0/rc_lookahead=40/rc=2pass/mbtree=1/bitrate=2188/ratetol=1.0/qcomp=0.60/qpmin=0/qpmax=69/qpstep=4/cplxblur=20.0/qblur=0.5/vbv_maxrate=50000/vbv_bufsize=62500/nal_hrd=none/filler=0/ip_ratio=1.10/aq=3: 0.80
    Language : English
    Default : Yes
    Forced : No
    Audio
    ID : 2
    Format : AC-3
    Format/Info : Audio Coding 3
    Codec ID : A_AC3
    Duration : 2 h 0 min
    Bit rate mode : Constant
    Bit rate : 384 kb/s
    Channel(s) : 6 channels
    Channel positions : Front: L C R, Side: L R, LFE
    Sampling rate : 48.0 kHz
    Frame rate : 31.250 FPS (1536 SPF)
    Bit depth : 16 bits
    Compression mode : Lossy
    Stream size : 332 MiB (15%)
    Title : Дублированный (iTunes)
    Language : Russian
    Service kind : Complete Main
    Default : Yes
    Forced : No
    Text #1
    ID : 3
    Format : UTF-8
    Codec ID : S_TEXT/UTF8
    Codec ID/Info : UTF-8 Plain Text
    Duration : 1 h 59 min
    Bit rate : 1 b/s
    Count of elements : 43
    Stream size : 1.60 KiB (0%)
    Title : Forced
    Language : Russian
    Default : Yes
    Forced : No
    Text #2
    ID : 4
    Format : UTF-8
    Codec ID : S_TEXT/UTF8
    Codec ID/Info : UTF-8 Plain Text
    Duration : 1 h 59 min
    Bit rate : 57 b/s
    Count of elements : 1062
    Stream size : 50.3 KiB (0%)
    Title : Full
    Language : Russian
    Default : No
    Forced : No
    Menu
    00: 00: 00.000 : en: 1
    00: 06: 49.034 : en: 2
    00: 13: 21.634 : en: 3
    00: 16: 42.459 : en: 4
    00: 27: 09.919 : en: 5
    00: 34: 04.458 : en: 6
    00: 41: 04.543 : en: 7
    00: 47: 07.613 : en: 8
    00: 54: 16.333 : en: 9
    01: 02: 16.813 : en: 10
    01: 11: 17.727 : en: 11
    01: 18: 38.125 : en: 12
    01: 25: 18.942 : en: 13
    01: 31: 39.238 : en: 14
    01: 40: 09.330 : en: 15
    01: 52: 13.720 : en: 16

    Скриншоты для ознакомления



    Все одноименные релизы в Клубе
    Время раздачи: 24/7 (до появления первых 3-5 скачавших)


    Онлайн видео Великий уравнитель 2



    Великий уравнитель 2/The Equalizer 2 (2018) WEB-DLRip [H.264/720p-LQ]
    Рейтинг →
     (голосов: 1, оценка 3/5, голосовать можно 1 раз )

    Другие торренты по теме:

  • Великий уравнитель / The Equalizer (2014) WEBRip [1080p] [Трейлер]
  • Великий уравнитель / The Equalizer (2014) WEBRip [H.264 / 720p-LQ] [Трейлер]
  • Великий уравнитель / The Equalizer (2014) CamRip скачать через торрент бесплатно
  • Великий уравнитель / The Equalizer (2014) CamRip скачать через торрент бесплатно
  • Великий уравнитель / The Equalizer (2014) HDRip [звук с TS] скачать через торрент бесплатно
  • Великий уравнитель / The Equalizer (2014) HDRip [Line]
  • Великий уравнитель / The Equalizer (2014) HDRip [Line]
  • Великий уравнитель / The Equalizer (2014) BDRip [H.264 / 720p-LQ] [VO]


    • Комментарии (0):

      Информация

      Информация

        Посетители, находящиеся в группе Гости, не могут оставлять комментарии в данной новости.

        ↓ Меню




        ↓ Опрос

        Вы добавили сайт в закладки?
        Да
        Нет


        Top 10 за месяц (Фильмы)