.
Авторизация | Регистрация
Хочешь лучшие торренты? Добавь свой email!
Добавить

Торрент скачать бесплатно

  • support: webmaster@btracker.club
» » Галвестон / Galveston (2018) WEB-DLRip [H.264 / 1080p-LQ] [Line, AD] торрент скачать бесплатно


    Галвестон / Galveston (2018) WEB-DLRip [H.264 / 1080p-LQ] [Line, AD] торрент скачать бесплатно

    Опубликовал: fregat | Дата: 1-11-2018, 05:00 | .torrent скачали: 0

    Галвестон / Galveston (2018) WEB-DLRip [H.264 / 1080p-LQ] [Line, AD]Производство: США, Jean Doumanian Productions, Low Spark Films
    Жанр: Боевик, Триллер, Драма, Криминал
    Режиссер: Мелани Лоран

    Актеры
    Эль Фаннинг, Бен Фостер, Джеффри Гроувер, Кристофер Амитрано, Марк Хикс, Мария Вальверде, Бо Бриджес, Майкл Рэй Эскамиллья, Дж. Питер Кинг, Джимми Ли Сессомс и др.

    Описание

    История о бывшем приспешнике мафиози Рое Кэди, который имел неосторожность перейти дорогу своему влиятельному боссу. Став мишенью наёмных убийц, Кэди пускается в бега и по стечению обстоятельств берёт ответственность за жизнь ещё и своей неожиданной спутницы — совсем молоденькой проститутки.

    Возраст: 18+ (зрителям, достигшим 18 лет. запрещено для детей)
    Дата мировой премьеры: 10 марта 2018
    Дата российской премьеры: 18 октября 2018, Парадиз
    Продолжительность: 01: 33: 20
    Качество видео: WEB-DLRip
    Перевод: Дублированный (чистый звук)
    Субтитры: Отсутствуют
    Реклама: Присутствуют вставки текстовой рекламы
    Видео: AVC/H.264, 1920x800, ~5426 Kbps
    Аудио: AC3, 2 ch, 192 Kbps

    Общее
    Уникальный идентификатор : 86249165742883760378148362735971265592 (0x40E2FC2F665A32FB280F9C116720EC38)
    Полное имя : C: UsersUserDesktopNNMClubGalveston.2O18.D.WEB-DLRip.1O8Op.mkv
    Формат : Matroska
    Версия формата : Version 2
    Размер файла : 3, 57 Гбайт
    Продолжительность : 1 ч. 33 м.
    Общий поток : 5475 Кбит/сек
    Дата кодирования : UTC 2018-10-30 05: 03: 47/UTC 2018-10-30 05: 03: 47
    Программа кодирования : Lavf54.63.104
    Библиотека кодирования : Lavf54.63.104
    Видео
    Идентификатор : 1
    Формат : AVC
    Формат/Информация : Advanced Video Codec
    Профиль формата : Main@L4
    Настройки формата : CABAC/1 Ref Frames
    Параметр CABAC формата : Да
    Параметр RefFrames формата : 1 кадр
    Идентификатор кодека : V_MPEG4/ISO/AVC
    Продолжительность : 1 ч. 33 м.
    Битрейт : 5426 Кбит/сек
    Ширина : 1920 пикселей
    Высота : 800 пикселей
    Соотношение сторон : 2, 40: 1
    Режим частоты кадров : Постоянный
    Частота кадров : 23, 976 (24000/1001) кадра/сек
    Цветовое пространство : YUV
    Субдискретизация насыщенности : 4: 2: 0
    Битовая глубина : 8 бит
    Тип развёртки : Прогрессивная
    Бит/(Пиксели*Кадры) : 0.147
    Размер потока : 3, 37 Гбайт (95%)
    Библиотека кодирования : x264 core 129
    Настройки программы : cabac=1/ref=1/deblock=1: 0: 0/analyse=0x1: 0x131/me=dia/subme=2/psy=1/psy_rd=1.00: 0.00/mixed_ref=0/me_range=16/chroma_me=1/trellis=0/8x8dct=0/cqm=0/deadzone=21, 11/fast_pskip=1/chroma_qp_offset=0/threads=8/lookahead_threads=1/sliced_threads=0/nr=0/decimate=1/interlaced=0/bluray_compat=0/constrained_intra=0/bframes=0/weightp=2/keyint=250/keyint_min=25/scenecut=40/intra_refresh=0/rc_lookahead=40/rc=abr/mbtree=1/bitrate=5426/ratetol=1.0/qcomp=0.60/qpmin=10/qpmax=51/qpstep=4/ip_ratio=1.41/aq=1: 1.00
    Default : Да
    Forced : Нет
    Аудио
    Идентификатор : 2
    Формат : AC-3
    Формат/Информация : Audio Coding 3
    Коммерческое название : Dolby Digital
    Идентификатор кодека : A_AC3
    Продолжительность : 1 ч. 33 м.
    Вид битрейта : Постоянный
    Битрейт : 192 Кбит/сек
    Каналы : 2 канала
    Channel layout : L R
    Частота : 48, 0 КГц
    Частота кадров : 31, 250 кадров/сек (1536 SPF)
    Битовая глубина : 16 бит
    Метод сжатия : С потерями
    Размер потока : 128 Мбайт (4%)
    ServiceKind/String : Complete Main
    Default : Да
    Forced : Нет

    Скриншоты для ознакомления



    Все одноименные релизы в Клубе
    Время раздачи: 24/7 (до появления первых 3-5 скачавших)


    Онлайн видео Галвестон



    Галвестон/Galveston (2018) WEB-DLRip [H.264/1080p-LQ] [Line, AD]
    Рейтинг →
     (голосов: 1, оценка 4/5, голосовать можно 1 раз )

    Другие торренты по теме:

  • Галвестон / Galveston (2018) WEB-DLRip [MVO]
  • Галвестон / Galveston (2018) WEB-DL [H.264 / 1080p-LQ] [MVO]
  • Галвестон / Galveston (2018) WEB-DL [H.264 / 1080p-LQ] [MVO]
  • Галвестон / Galveston (2018) WEB-DL [MVO]
  • Галвестон / Galveston (2018) WEB-DL [1080p] ATV (MVO)
  • Галвестон / Galveston (2018) WEB-DL [H.264 / 1080p-LQ]


    • Комментарии (0):

      Информация

      Информация

        Посетители, находящиеся в группе Гости, не могут оставлять комментарии в данной новости.

        ↓ Меню




        ↓ Опрос

        Вы добавили сайт в закладки?
        Да
        Нет


        Top 10 за месяц (Фильмы)