.
Авторизация | Регистрация
Хочешь лучшие торренты? Добавь свой email!
Добавить

Торрент скачать бесплатно

  • support: webmaster@btracker.club
» » Простите за беспокойство / Sorry to Bother You (2018) BDRip [H.264 / 720p] [MVO] торрент скачать бесплатно


    Простите за беспокойство / Sorry to Bother You (2018) BDRip [H.264 / 720p] [MVO] торрент скачать бесплатно

    Опубликовал: fregat | Дата: 1-11-2018, 05:00 | .torrent скачали: 0

    Простите за беспокойство / Sorry to Bother You (2018) BDRip [H.264 / 720p] [MVO]Производство: США/Cinereach, Forest Whitaker's Significant Productions
    Жанр: Комедия, Фантастика
    Режиссер: Бутс Райли

    Актеры
    Лейкит Стэнфилд, Тесса Томпсон, Жермен Фаулер, Омари Хардвик, Терри Крюс, Кейт Берлант, Майкл И. Соммерс, Дэнни Гловер, Стивен Юн, Арми Хаммер

    Описание

    Темнокожий житель Окленда Кассиус Грин живет в гараже у родного дяди, которого со дня на день могут лишить жилья за долги, поэтому парень устраивается туда, куда берут всех — в колл-центр. Обзванивая потенциальных покупателей, Кассиус сталкивается с тотальным безразличием, когда получает совет от бывалого коллеги использовать так называемый белый голос. С этого момента его продажи растут, и жизнь меняется, но в это время недовольные системой оплаты коллеги решают устроить забастовку и основать профсоюз.

    Возраст: 18+ (зрителям, достигшим 18 лет. запрещено для детей)
    Рейтинг MPAA: R (лицам до 17 лет обязательно присутствие взрослого)
    Дата мировой премьеры: 20 января 2018
    Дата российской премьеры: Неизвестна
    Релиз от: TeamHD
    Продолжительность: 01: 50: 47
    Качество видео: BDRip
    Перевод: Многоголосый закадровый, профессиональный
    Субтитры: Английские
    Видео: AVC/H.264, 1280x534, ~6158 Kbps
    Аудио 01: AC3, 2 ch, 192 Kbps - Русский (MVO, HDRezka Studio)
    Аудио 02: DTS, 6 ch, 1509 Kbps - Английский

    Общее
    Уникальный идентификатор : 253244529031933068548951711741150218003 (0xBE851F46A1616570A06568BCD563C713)
    Полное имя : C: UsersDOMKPATDesktopSorry.to.Bother.You.2018.720p.BluRay.Rus.Eng.TeamHD-potroks.mkv
    Формат : Matroska
    Версия формата : Version 4/Version 2
    Размер файла : 6, 08 Гбайт
    Продолжительность : 1 ч. 50 м.
    Общий поток : 7862 Кбит/сек
    Название фильма : Sorry to Bother You (2018)
    Дата кодирования : UTC 2018-10-31 14: 12: 53
    Программа кодирования : mkvmerge v5.9.0 ('On The Loose') built on Dec 15 2012 16: 39: 58
    Библиотека кодирования : libebml v1.3.0 + libmatroska v1.4.0
    Видео
    Идентификатор : 1
    Формат : AVC
    Формат/Информация : Advanced Video Codec
    Профиль формата : High@L4.1
    Настройки формата : CABAC/12 Ref Frames
    Параметр CABAC формата : Да
    Параметр RefFrames формата : 12 кадров
    Идентификатор кодека : V_MPEG4/ISO/AVC
    Продолжительность : 1 ч. 50 м.
    Битрейт : 6158 Кбит/сек
    Ширина : 1280 пикселей
    Высота : 534 пикселя
    Соотношение сторон : 2, 40: 1
    Режим частоты кадров : Постоянный
    Частота кадров : 23, 976 (24000/1001) кадра/сек
    Цветовое пространство : YUV
    Субдискретизация насыщенности : 4: 2: 0
    Битовая глубина : 8 бит
    Тип развёртки : Прогрессивная
    Бит/(Пиксели*Кадры) : 0.376
    Размер потока : 4, 65 Гбайт (76%)
    Заголовок : potroks
    Библиотека кодирования : x264 core 157 r2901M 7d0ff22
    Настройки программы : cabac=1/ref=12/deblock=1: -3: -3/analyse=0x3: 0x133/me=umh/subme=11/psy=1/psy_rd=1.00: 0.02/mixed_ref=1/me_range=48/chroma_me=1/trellis=2/8x8dct=1/cqm=0/deadzone=21, 11/fast_pskip=0/chroma_qp_offset=-3/threads=9/lookahead_threads=2/sliced_threads=0/nr=0/decimate=0/interlaced=0/bluray_compat=0/constrained_intra=0/bframes=11/b_pyramid=2/b_adapt=2/b_bias=0/direct=3/weightb=1/open_gop=0/weightp=2/keyint=240/keyint_min=23/scenecut=40/intra_refresh=0/rc_lookahead=100/rc=2pass/mbtree=0/bitrate=6158/ratetol=1.0/qcomp=0.70/qpmin=0/qpmax=69/qpstep=4/cplxblur=20.0/qblur=0.5/vbv_maxrate=50000/vbv_bufsize=50000/nal_hrd=none/filler=0/ip_ratio=1.40/pb_ratio=1.30/aq=1: 0.70
    Язык : English
    Default : Да
    Forced : Нет
    Аудио #1
    Идентификатор : 2
    Формат : AC-3
    Формат/Информация : Audio Coding 3
    Идентификатор кодека : A_AC3
    Продолжительность : 1 ч. 50 м.
    Вид битрейта : Постоянный
    Битрейт : 192 Кбит/сек
    Каналы : 2 канала
    Расположение каналов : Front: L R
    Частота : 48, 0 КГц
    Частота кадров : 31, 250 кадров/сек (1536 SPF)
    Битовая глубина : 16 бит
    Метод сжатия : С потерями
    Размер потока : 152 Мбайт (2%)
    Заголовок : MVO | DD 2.0 @ 192 kbps - HDRezka Studio
    Язык : Russian
    ServiceKind/String : Complete Main
    Default : Да
    Forced : Нет
    Аудио #2
    Идентификатор : 3
    Формат : DTS
    Формат/Информация : Digital Theater Systems
    Идентификатор кодека : A_DTS
    Продолжительность : 1 ч. 50 м.
    Вид битрейта : Постоянный
    Битрейт : 1509 Кбит/сек
    Каналы : 6 каналов
    Расположение каналов : Front: L C R, Side: L R, LFE
    Частота : 48, 0 КГц
    Частота кадров : 93, 750 кадра/сек (512 SPF)
    Битовая глубина : 24 бит
    Метод сжатия : С потерями
    Размер потока : 1, 17 Гбайт (19%)
    Заголовок : Original | DTS 5.1 @ 1509 kbps
    Язык : English
    Default : Нет
    Forced : Нет
    Текст #1
    Идентификатор : 4
    Формат : UTF-8
    Идентификатор кодека : S_TEXT/UTF8
    Идентификатор кодека/Информация : UTF-8 Plain Text
    Заголовок : Full
    Язык : English
    Default : Нет
    Forced : Нет
    Текст #2
    Идентификатор : 5
    Формат : UTF-8
    Идентификатор кодека : S_TEXT/UTF8
    Идентификатор кодека/Информация : UTF-8 Plain Text
    Заголовок : SDH
    Язык : English
    Default : Нет
    Forced : Нет
    Текст #3
    Идентификатор : 6
    Формат : UTF-8
    Идентификатор кодека : S_TEXT/UTF8
    Идентификатор кодека/Информация : UTF-8 Plain Text
    Заголовок : SDH-Colored
    Язык : English
    Default : Нет
    Forced : Нет
    Меню
    00: 00: 00.000 : en: Chapter 01
    00: 03: 35.340 : en: Chapter 02
    00: 07: 31.492 : en: Chapter 03
    00: 13: 04.325 : en: Chapter 04
    00: 18: 54.800 : en: Chapter 05
    00: 26: 37.637 : en: Chapter 06
    00: 32: 27.946 : en: Chapter 07
    00: 37: 08.267 : en: Chapter 08
    00: 40: 08.614 : en: Chapter 09
    00: 43: 46.373 : en: Chapter 10
    00: 46: 59.191 : en: Chapter 11
    00: 49: 18.830 : en: Chapter 12
    00: 52: 30.939 : en: Chapter 13
    00: 57: 29.779 : en: Chapter 14
    01: 00: 18.489 : en: Chapter 15
    01: 05: 14.201 : en: Chapter 16
    01: 07: 52.485 : en: Chapter 17
    01: 13: 48.298 : en: Chapter 18
    01: 17: 13.128 : en: Chapter 19
    01: 21: 46.902 : en: Chapter 20
    01: 27: 03.343 : en: Chapter 21
    01: 31: 37.408 : en: Chapter 22
    01: 38: 49.131 : en: Chapter 23
    01: 44: 59.751 : en: Chapter 24

    Скриншоты для ознакомления



    Все одноименные релизы в Клубе
    Время раздачи: 24/7 (до появления первых 3-5 скачавших)


    Онлайн видео Простите за беспокойство



    Простите за беспокойство/Sorry to Bother You (2018) BDRip [H.264/720p] [MVO]
    Рейтинг →
     (голосов: 1, оценка 5/5, голосовать можно 1 раз )

    Другие торренты по теме:

  • Простите за беспокойство / Sorry to Bother You (2018) BDRip [MVO]
  • Простите за беспокойство / Sorry to Bother You (2018) BDRip [H.264 / 1080p] [MVO]


    • Комментарии (0):

      Информация

      Информация

        Посетители, находящиеся в группе Гости, не могут оставлять комментарии в данной новости.

        ↓ Меню




        ↓ Опрос

        Вы добавили сайт в закладки?
        Да
        Нет


        Top 10 за месяц (Фильмы)