.
Авторизация | Регистрация
Хочешь лучшие торренты? Добавь свой email!
Добавить

Торрент скачать бесплатно

  • support: webmaster@btracker.club
» » Прирожденный гонщик / Born Racer (2018) WEB-DLRip [MVO] [AD] торрент скачать бесплатно


    Прирожденный гонщик / Born Racer (2018) WEB-DLRip [MVO] [AD] торрент скачать бесплатно

    Опубликовал: fregat | Дата: 1-11-2018, 05:00 | .torrent скачали: 0

    Прирожденный гонщик / Born Racer (2018) WEB-DLRip [MVO] [AD]Производство: Новая Зеландия/General Film Corporation
    Жанр: Боевик, драма
    Режиссер: Брин Эванс

    Актеры
    Дарио Франкитти, Скот Диксон, Тони Канаан, Чип Ганасси ...

    Описание

    История новозеландского автогонщика Скотта Диксона и его команды. Фильм повествует об их стремлении победить в самой престижной гоночной серии Северной Америки - IndyCar.

    Рейтинг MPAA: R (лицам до 17 лет обязательно присутствие взрослого)
    Дата мировой премьеры: 25 октября 2018
    Продолжительность: 01: 28: 21
    Качество видео: WEB-DLRip
    Перевод: Многоголосый закадровый, профессиональный (Синема УС)
    Субтитры: Отсутствуют
    Реклама: Присутствуют вставки текстовой рекламы
    Видео: XviD, 720x304, ~1758 Kbps
    Аудио: AC-3, 2 ch, 384 Kbps

    Общее
    Полное имя : E: NNMПрирожденный гонщикBorn Racer 2018 WEB-DLRip.avi
    Формат : AVI
    Формат/Информация : Audio Video Interleave
    Профиль формата : OpenDML
    Размер файла : 1, 33 Гбайт
    Продолжительность : 1 ч. 28 м.
    Общий поток : 2154 Кбит/сек
    Видео
    Идентификатор : 0
    Формат : MPEG-4 Visual
    Профиль формата : Advanced Simple@L5
    Настройки формата : BVOP2/Custom Matrix
    Параметр BVOP формата : 2
    Параметр QPel формата : Нет
    Параметр GMC формата : Без точки перехода
    Параметр матрицы формата : Выборочная
    Идентификатор кодека : XVID
    Идентификатор кодека/Подсказка : XviD
    Продолжительность : 1 ч. 28 м.
    Битрейт : 1758 Кбит/сек
    Ширина : 720 пикселей
    Высота : 304 пикселя
    Соотношение сторон : 2, 35: 1
    Частота кадров : 23, 976 (24000/1001) кадра/сек
    Цветовое пространство : YUV
    Субдискретизация насыщенности : 4: 2: 0
    Битовая глубина : 8 бит
    Тип развёртки : Прогрессивная
    Метод сжатия : С потерями
    Бит/(Пиксели*Кадры) : 0.335
    Размер потока : 1, 08 Гбайт (82%)
    Библиотека кодирования : XviD 1.2.1 (UTC 2008-12-04)
    Аудио
    Идентификатор : 1
    Формат : AC-3
    Формат/Информация : Audio Coding 3
    Идентификатор кодека : 2000
    Продолжительность : 1 ч. 28 м.
    Вид битрейта : Постоянный
    Битрейт : 384 Кбит/сек
    Каналы : 2 канала
    Расположение каналов : Front: L R
    Частота : 48, 0 КГц
    Частота кадров : 31, 250 кадров/сек (1536 SPF)
    Битовая глубина : 16 бит
    Метод сжатия : С потерями
    Размер потока : 243 Мбайт (18%)
    Выравнивание : Соединение по промежуткам
    Продолжительность промежутка : 32 мс. (0, 77 видеокадр)
    ServiceKind/String : Complete Main

    Скриншоты для ознакомления



    Все одноименные релизы в Клубе Время раздачи: 24/7 (до появления первых 3-5 скачавших)


    Онлайн видео Прирожденный гонщик



    Прирожденный гонщик/Born Racer (2018) WEB-DLRip [MVO] [AD]
    Рейтинг →
     (голосов: 1, оценка 5/5, голосовать можно 1 раз )

    Другие торренты по теме:

  • Прирожденный гонщик 2 / Born to Race: Fast Track (2014) HDRip [VO]
  • Прирожденный гонщик 2 / Born to Race: Fast Track (2014) BDRip [1080p] [VO]


    • Комментарии (0):

      Информация

      Информация

        Посетители, находящиеся в группе Гости, не могут оставлять комментарии в данной новости.

        ↓ Меню




        ↓ Опрос

        Вы добавили сайт в закладки?
        Да
        Нет


        Top 10 за месяц (Фильмы)