.
Авторизация | Регистрация
Хочешь лучшие торренты? Добавь свой email!
Добавить

Торрент скачать бесплатно

  • support: webmaster@btracker.club
» » Лондонские поля / London Fields (2018) WEB-DLRip торрент скачать бесплатно


    Лондонские поля / London Fields (2018) WEB-DLRip торрент скачать бесплатно

    Опубликовал: fregat | Дата: 1-11-2018, 05:00 | .torrent скачали: 0

    Лондонские поля / London Fields (2018) WEB-DLRipПроизводство: Великобритания, США/Muse Productions, Periscope Entertainment, Curiously Bright Entertainment
    Жанр: Триллер, криминал, детектив
    Режиссер: Мэтью Каллен

    Актеры
    Эмбер Хёрд, Джемма Чан, Кара Делевинь, Тео Джеймс, Джейсон Айзекс, Джейми Александер, Билли Боб Торнтон, Джим Стёрджесс, Лили Коул, Генри Гаррет

    Описание

    Никола Сикс, роковая красотка, обладающая даром ясновидения, живет с предчувствием своей скорой смерти. Не удержавшись, она начинает опасный любовный роман сразу с тремя совершено разными мужчинами, хотя Никола точно знает, что один из них вскоре станет её убийцей…

    Возраст: 18+ (зрителям, достигшим 18 лет. запрещено для детей)
    Рейтинг MPAA: R (лицам до 17 лет обязательно присутствие взрослого)
    Дата мировой премьеры: 6 сентября 2018
    Дата российской премьеры: 20 сентября 2018
    Продолжительность: 01: 43: 07
    Качество видео: WEB-DLRip
    Перевод: Дублированный (iTunes)
    Субтитры: Отсутствуют
    Видео: XviD, 720x304, ~1635 Kbps
    Аудио: AC-3, 6 ch, 384 Kbps

    Общее
    Полное имя : E: NNMЛондонские поляLondon Fields 2018 WEB-DLRip.avi
    Формат : AVI
    Формат/Информация : Audio Video Interleave
    Размер файла : 1, 46 Гбайт
    Продолжительность : 1 ч. 43 м.
    Общий поток : 2029 Кбит/сек
    Программа кодирования : VirtualDubMod 1.5.10.3 |www.virtualdub-fr.org|| (build 2550/release)
    Библиотека кодирования : VirtualDubMod build 2550/release
    Видео
    Идентификатор : 0
    Формат : MPEG-4 Visual
    Профиль формата : Advanced Simple@L5
    Настройки формата : BVOP1/Custom Matrix
    Параметр BVOP формата : 1
    Параметр QPel формата : Нет
    Параметр GMC формата : Без точки перехода
    Параметр матрицы формата : Выборочная
    Идентификатор кодека : XVID
    Идентификатор кодека/Подсказка : XviD
    Продолжительность : 1 ч. 43 м.
    Битрейт : 1635 Кбит/сек
    Ширина : 720 пикселей
    Высота : 304 пикселя
    Соотношение сторон : 2, 35: 1
    Частота кадров : 25, 000 кадров/сек
    Цветовое пространство : YUV
    Субдискретизация насыщенности : 4: 2: 0
    Битовая глубина : 8 бит
    Тип развёртки : Прогрессивная
    Метод сжатия : С потерями
    Бит/(Пиксели*Кадры) : 0.299
    Размер потока : 1, 18 Гбайт (81%)
    Библиотека кодирования : XviD 73
    Аудио
    Идентификатор : 1
    Формат : AC-3
    Формат/Информация : Audio Coding 3
    Идентификатор кодека : 2000
    Продолжительность : 1 ч. 43 м.
    Вид битрейта : Постоянный
    Битрейт : 384 Кбит/сек
    Каналы : 6 каналов
    Расположение каналов : Front: L C R, Side: L R, LFE
    Частота : 48, 0 КГц
    Частота кадров : 31, 250 кадров/сек (1536 SPF)
    Битовая глубина : 16 бит
    Метод сжатия : С потерями
    Размер потока : 283 Мбайт (19%)
    Выравнивание : Разделение по промежуткам
    Продолжительность промежутка : 40 мс. (1, 00 видеокадр)
    Время предзагрузки промежутка : 500 мс.
    ServiceKind/String : Complete Main

    Скриншоты для ознакомления



    Все одноименные релизы в Клубе Время раздачи: 24/7 (до появления первых 3-5 скачавших)


    Онлайн видео Лондонские поля



    Лондонские поля/London Fields (2018) WEB-DLRip
    Рейтинг →
     (голосов: 1, оценка 5/5, голосовать можно 1 раз )

    Другие торренты по теме:

  • Лондонские поля / London Fields (2018) CamRip [AD]
  • Лондонские поля / London Fields (2018) WEB-DL [H.264 / 1080p-LQ]
  • Лондонские поля / London Fields (2018) WEB-DL [1080p] ATV
  • Лондонские поля / London Fields (2018) WEB-DL [720p] ATV


    • Комментарии (0):

      Информация

      Информация

        Посетители, находящиеся в группе Гости, не могут оставлять комментарии в данной новости.

        ↓ Меню




        ↓ Опрос

        Вы добавили сайт в закладки?
        Да
        Нет


        Top 10 за месяц (Фильмы)