.
Авторизация | Регистрация
Хочешь лучшие торренты? Добавь свой email!
Добавить

Торрент скачать бесплатно

  • support: webmaster@btracker.club
» » Смертельный квест / No Escape Room (2018) WEB-DLRip [H.264 / 720p-LQ] [MVO] торрент скачать бесплатно


    Смертельный квест / No Escape Room (2018) WEB-DLRip [H.264 / 720p-LQ] [MVO] торрент скачать бесплатно

    Опубликовал: fregat | Дата: 1-11-2018, 05:00 | .torrent скачали: 0

    Смертельный квест / No Escape Room (2018) WEB-DLRip [H.264 / 720p-LQ] [MVO]Производство: США
    Жанр: Ужасы, Триллер
    Режиссер: Алекс Меркин
    Продюсер: Шэйн Бучер, Nicholas Chow, Нил Элман

    Актеры
    Дженни Росс, Марк Ганиме, Хамза Хак, Дэннис Андрес, Брианна Барнс, Кейт Хармэн.

    Описание

    Главный герой фильма Майкл собирается встретиться со своей повзрослевшей дочерью Карен. Он считает, что было бы неплохо провести совместные выходные и как следует отдохнуть и пообщаться после долгой разлуки. Они крайне редко видятся после того, как Майкл развелся с женой, а уже путешествовать с дочкой ему никогда не доводилось. Предвкушая приятный уик-энд с дочкой, Майкл, заранее разработал план путешествия, постарался учесть все тонкости, чтобы дочери было весело и интересно. Задуманный как простой квест, отпуск внезапно превращается в смертельно опасный паранормальный эксперимент...

    Дата мировой премьеры: 6 октября 2018
    Продолжительность: 01: 25: 07
    Качество видео: WEB-DLRip
    Перевод: Многоголосый закадровый, любительский
    Озвучка/Автор перевода: HiWayGrope
    Субтитры: Отсутствуют
    Видео: AVC/H.264, 1280x720, ~5100 Kbps
    Аудио 1: AC3, 2 ch, 192 Kbps | русский
    Аудио 2: AC3, 6 ch, 384 Kbps | английский

    Общее
    Уникальный идентификатор : 144011512387050364105951198408854122657 (0x6C579BC061E040BE746B745C242EB0A1)
    Полное имя : D: FILMЬlNo Escape Room.720p.mkv
    Формат : Matroska
    Версия формата : Version 4/Version 2
    Размер файла : 3, 38 Гбайт
    Продолжительность : 1 ч. 25 м.
    Общий поток : 5678 Кбит/сек
    Название фильма : No Escape Room/Смертельный Квест
    Дата кодирования : UTC 2018-10-31 19: 56: 08
    Программа кодирования : mkvmerge v28.2.0 ('The Awakening') 64-bit
    Библиотека кодирования : libebml v1.3.6 + libmatroska v1.4.9
    Видео
    Идентификатор : 1
    Формат : AVC
    Формат/Информация : Advanced Video Codec
    Профиль формата : High@L4
    Настройки формата : CABAC/6 Ref Frames
    Параметр CABAC формата : Да
    Параметр RefFrames формата : 6 кадров
    Идентификатор кодека : V_MPEG4/ISO/AVC
    Продолжительность : 1 ч. 25 м.
    Битрейт : 5100 Кбит/сек
    Ширина : 1280 пикселей
    Высота : 720 пикселей
    Соотношение сторон : 16: 9
    Режим частоты кадров : Постоянный
    Частота кадров : 23, 976 (24000/1001) кадра/сек
    Цветовое пространство : YUV
    Субдискретизация насыщенности : 4: 2: 0
    Битовая глубина : 8 бит
    Тип развёртки : Прогрессивная
    Бит/(Пиксели*Кадры) : 0.231
    Размер потока : 3, 03 Гбайт (90%)
    Библиотека кодирования : x264 core 148 r2708 86b7198
    Настройки программы : cabac=1/ref=6/deblock=1: 0: 0/analyse=0x3: 0x113/me=umh/subme=10/psy=1/psy_rd=1.00: 0.00/mixed_ref=0/me_range=27/chroma_me=1/trellis=2/8x8dct=1/cqm=0/deadzone=21, 11/fast_pskip=1/chroma_qp_offset=-2/threads=6/lookahead_threads=1/sliced_threads=0/nr=0/decimate=1/interlaced=0/bluray_compat=0/constrained_intra=0/bframes=6/b_pyramid=2/b_adapt=2/b_bias=0/direct=2/weightb=1/open_gop=0/weightp=2/keyint=240/keyint_min=24/scenecut=40/intra_refresh=0/rc_lookahead=10/rc=2pass/mbtree=1/bitrate=5100/ratetol=1.0/qcomp=0.60/qpmin=0/qpmax=69/qpstep=4/cplxblur=20.0/qblur=0.5/ip_ratio=1.40/aq=1: 1.00
    Default : Да
    Forced : Нет
    Цветовой диапазон : Limited
    Основные цвета : BT.709
    Характеристики трансфера : BT.709
    Коэффициенты матрицы : BT.709
    Аудио #1
    Идентификатор : 2
    Формат : AC-3
    Формат/Информация : Audio Coding 3
    Идентификатор кодека : A_AC3
    Продолжительность : 1 ч. 25 м.
    Вид битрейта : Постоянный
    Битрейт : 192 Кбит/сек
    Каналы : 2 канала
    Расположение каналов : Front: L R
    Частота : 48, 0 КГц
    Частота кадров : 31, 250 кадров/сек (1536 SPF)
    Битовая глубина : 16 бит
    Метод сжатия : С потерями
    Задержка видео : 195 мс.
    Размер потока : 117 Мбайт (3%)
    Заголовок : 2 CH
    Язык : Russian
    ServiceKind/String : Complete Main
    Default : Нет
    Forced : Нет
    Аудио #2
    Идентификатор : 3
    Формат : AC-3
    Формат/Информация : Audio Coding 3
    Идентификатор кодека : A_AC3
    Продолжительность : 1 ч. 25 м.
    Вид битрейта : Постоянный
    Битрейт : 384 Кбит/сек
    Каналы : 6 каналов
    Расположение каналов : Front: L C R, Side: L R, LFE
    Частота : 48, 0 КГц
    Частота кадров : 31, 250 кадров/сек (1536 SPF)
    Битовая глубина : 16 бит
    Метод сжатия : С потерями
    Задержка видео : -5 мс.
    Размер потока : 234 Мбайт (7%)
    Заголовок : 5.1 CH
    Язык : English
    ServiceKind/String : Complete Main
    Default : Нет
    Forced : Нет

    Скриншоты для ознакомления



    Все одноименные релизы в Клубе
    Время раздачи: С 09: 00 до 23: 30 (до появления первых 3-5 скачавших)


    Онлайн видео Смертельный квест



    Смертельный квест/No Escape Room (2018) WEB-DLRip [H.264/720p-LQ] [MVO]
    Рейтинг →
     (голосов: 1, оценка 4/5, голосовать можно 1 раз )

    Другие торренты по теме:

  • Discovery. Смертельный улов / Deadliest Catch (Сезон: 10, Серии: 1-12 из 12) (2014) HDTVRip
  • NG: Больше чем фокусы с Ди Эм Си: Смертельный трюк / Beyond Magic With DMC (2014) SATRip скачать через торрент бесплатно
  • National Geographic. Смертельный бой динозавров / Dino Death Match (2015) SATRip скачать через торрент бесплатно
  • Смертельный круиз / Der Skipper (1990) DVDRip [H.264] скачать через торрент бесплатно
  • Смертельный круиз / Der Skipper (1990) DVDRip скачать через торрент бесплатно
  • Смертельный оргазм / Deathgasm (2015) WEB-DL [H.264 / 720p-LQ] [VO] скачать через торрент бесплатно
  • Discovery. Смертельный улов / Deadliest Catch (2015) HDTVRip (сезон 11, серии 1-10 из 16) (обновляемая) скачать через торрент бесплатно
  • Говорим и показываем. Смертельный рейс (01.11.2015) SATRip скачать через торрент бесплатно


    • Комментарии (0):

      Информация

      Информация

        Посетители, находящиеся в группе Гости, не могут оставлять комментарии в данной новости.

        ↓ Меню




        ↓ Опрос

        Вы добавили сайт в закладки?
        Да
        Нет


        Top 10 за месяц (Фильмы)