.
Авторизация | Регистрация
Хочешь лучшие торренты? Добавь свой email!
Добавить

Торрент скачать бесплатно

  • support: webmaster@btracker.club
» » Адам Сэндлер : Свеж на 100% / Adam Sandler: 100% Fresh (2018) WEBRip [MVO] [AD] торрент скачать бесплатно


    Адам Сэндлер : Свеж на 100% / Adam Sandler: 100% Fresh (2018) WEBRip [MVO] [AD] торрент скачать бесплатно

    Опубликовал: fregat | Дата: 1-11-2018, 05:00 | .torrent скачали: 0

    Адам Сэндлер : Свеж на 100% / Adam Sandler: 100% Fresh (2018) WEBRip [MVO] [AD]Производство: США/Irwin Entertainment
    Жанр: Комедия
    Режиссер: Стивен Брилл, Николаус Гуссен

    Актеры
    Адам Сэндлер, Роб Шнайдер, Дэн Булла ...

    Описание

    Адам Сэндлер возвращается к музыкальным номерам, от комедийных клубов до концертных залов и даже ничего не подозревающей станции метро.

    Дата мировой премьеры: 23 октября 2018
    Продолжительность: 01: 13: 26
    Качество видео: WEBRip
    Перевод: Многоголосый закадровый, профессиональный (Синема УС)
    Субтитры: Русские на песни (хардсаб)
    Реклама: Присутствуют вставки текстовой рекламы
    Видео: XviD, 720x400, ~1822 Kbps
    Аудио: AC-3, 2 ch, 384 Kbps

    Общее
    Полное имя : E: NNMАдам СэндлерAdam Sandler 2018 WEBRip.avi
    Формат : AVI
    Формат/Информация : Audio Video Interleave
    Профиль формата : OpenDML
    Размер файла : 1, 34 Гбайт
    Продолжительность : 1 ч. 13 м.
    Общий поток : 2610 Кбит/сек
    Видео
    Идентификатор : 0
    Формат : MPEG-4 Visual
    Профиль формата : Advanced Simple@L5
    Настройки формата : BVOP2/Custom Matrix
    Параметр BVOP формата : 2
    Параметр QPel формата : Нет
    Параметр GMC формата : Без точки перехода
    Параметр матрицы формата : Выборочная
    Идентификатор кодека : XVID
    Идентификатор кодека/Подсказка : XviD
    Продолжительность : 1 ч. 13 м.
    Битрейт : 1822 Кбит/сек
    Ширина : 720 пикселей
    Высота : 400 пикселей
    Соотношение сторон : 16: 9
    Частота кадров : 23, 976 (24000/1001) кадра/сек
    Цветовое пространство : YUV
    Субдискретизация насыщенности : 4: 2: 0
    Битовая глубина : 8 бит
    Тип развёртки : Прогрессивная
    Метод сжатия : С потерями
    Бит/(Пиксели*Кадры) : 0.264
    Размер потока : 957 Мбайт (70%)
    Библиотека кодирования : XviD 1.2.1 (UTC 2008-12-04)
    Аудио #1
    Идентификатор : 1
    Формат : AC-3
    Формат/Информация : Audio Coding 3
    Идентификатор кодека : 2000
    Продолжительность : 1 ч. 13 м.
    Вид битрейта : Постоянный
    Битрейт : 384 Кбит/сек
    Каналы : 2 канала
    Расположение каналов : Front: L R
    Частота : 48, 0 КГц
    Частота кадров : 31, 250 кадров/сек (1536 SPF)
    Битовая глубина : 16 бит
    Метод сжатия : С потерями
    Размер потока : 202 Мбайт (15%)
    Выравнивание : Соединение по промежуткам
    Продолжительность промежутка : 32 мс. (0, 77 видеокадр)
    ServiceKind/String : Complete Main
    Аудио #2
    Идентификатор : 2
    Формат : AC-3
    Формат/Информация : Audio Coding 3
    Идентификатор кодека : 2000
    Продолжительность : 1 ч. 13 м.
    Вид битрейта : Постоянный
    Битрейт : 384 Кбит/сек
    Каналы : 2 канала
    Расположение каналов : Front: L R
    Частота : 48, 0 КГц
    Частота кадров : 31, 250 кадров/сек (1536 SPF)
    Битовая глубина : 16 бит
    Метод сжатия : С потерями
    Размер потока : 202 Мбайт (15%)
    Выравнивание : Соединение по промежуткам
    Продолжительность промежутка : 32 мс. (0, 77 видеокадр)
    ServiceKind/String : Complete Main

    Скриншоты для ознакомления



    Все одноименные релизы в Клубе Время раздачи: 24/7 (до появления первых 3-5 скачавших)


    Онлайн видео Адам Сэндлер : Свеж на 100%



    Адам Сэндлер : Свеж на 100%/Adam Sandler: 100% Fresh (2018) WEBRip [MVO] [AD]
    Рейтинг →
     (голосов: 1, оценка 4/5, голосовать можно 1 раз )

    Другие торренты по теме:

  • Discovery: Джейми и Адам. Испытано! / Jamie & Adam Tested (2014) WEB-DLRip (Серия 2)
  • Discovery: Джейми и Адам. Испытано! / Jamie & Adam Tested (2014) WEB-DLRip (Серия 1)
  • Discovery: Джейми и Адам. Испытано! / Jamie & Adam Tested (2014) WEB-DLRip (Серия 3)
  • Адам Смит | Исследование о природе и причинах богатства народов (1962) [DJVU]
  • Discovery: Джейми и Адам. Испытано! / Jamie & Adam Tested (2014) WEB-DLRip (Серия 4) скачать через торрент бесплатно
  • Discovery: Джейми и Адам. Испытано! / Jamie & Adam Tested (2014) WEB-DLRip (Серия 5) скачать через торрент бесплатно
  • Адам хочет быть человеком (1959) Screener скачать через торрент бесплатно
  • Шеф Адам Джонс / Burnt (2015) CamRip [EN] скачать через торрент бесплатно


    • Комментарии (0):

      Информация

      Информация

        Посетители, находящиеся в группе Гости, не могут оставлять комментарии в данной новости.

        ↓ Меню




        ↓ Опрос

        Вы добавили сайт в закладки?
        Да
        Нет


        Top 10 за месяц (Фильмы)