.
Авторизация | Регистрация
Хочешь лучшие торренты? Добавь свой email!
Добавить

Торрент скачать бесплатно

  • support: webmaster@btracker.club
» » Час до убийства / An Hour to Kill (2018) WEB-DLRip [MVO] [AD] торрент скачать бесплатно


    Час до убийства / An Hour to Kill (2018) WEB-DLRip [MVO] [AD] торрент скачать бесплатно

    Опубликовал: fregat | Дата: 1-11-2018, 05:00 | .torrent скачали: 0

    Час до убийства / An Hour to Kill (2018) WEB-DLRip [MVO] [AD]Производство: США/Rotten Productions
    Жанр: Ужасы, комедия, боевик
    Режиссер: Аарон К. Картер

    Актеры
    Мел Новак, Фрэнки Позос, Аарон Герерро, Аманда Рау, Иола Кора, Стефани Стрелоу, Алезйа Гарсия, Вероника Риччи, Джефф Ректор, Пол Андерсон

    Описание

    Паре киллеров - новичку и профессионалу, нужно убить час до следующего заказа. Чтобы он прошел быстрее, они начинают рассказывать друг другу жуткие истории, которые с ними случались.

    Дата мировой премьеры: 12 июня 2018
    Продолжительность: 01: 35: 54
    Качество видео: WEB-DLRip
    Перевод: Многоголосый закадровый, профессиональный (Синема УС)
    Субтитры: Отсутствуют
    Реклама: Присутствуют вставки текстовой рекламы
    Видео: XviD, 720x400, ~1585 Kbps
    Аудио: AC-3, 2 ch, 384 Kbps

    Общее
    Полное имя : E: NNMЧас до убийстваAn Hour To Kill 2018 WEB-DLRip.avi
    Формат : AVI
    Формат/Информация : Audio Video Interleave
    Профиль формата : OpenDML
    Размер файла : 1, 33 Гбайт
    Продолжительность : 1 ч. 35 м.
    Общий поток : 1981 Кбит/сек
    Видео
    Идентификатор : 0
    Формат : MPEG-4 Visual
    Профиль формата : Advanced Simple@L5
    Настройки формата : BVOP2/Custom Matrix
    Параметр BVOP формата : 2
    Параметр QPel формата : Нет
    Параметр GMC формата : Без точки перехода
    Параметр матрицы формата : Выборочная
    Идентификатор кодека : XVID
    Идентификатор кодека/Подсказка : XviD
    Продолжительность : 1 ч. 35 м.
    Битрейт : 1585 Кбит/сек
    Ширина : 720 пикселей
    Высота : 400 пикселей
    Соотношение сторон : 16: 9
    Частота кадров : 23, 976 (24000/1001) кадра/сек
    Цветовое пространство : YUV
    Субдискретизация насыщенности : 4: 2: 0
    Битовая глубина : 8 бит
    Тип развёртки : Прогрессивная
    Метод сжатия : С потерями
    Бит/(Пиксели*Кадры) : 0.230
    Размер потока : 1, 06 Гбайт (80%)
    Библиотека кодирования : XviD 1.2.1 (UTC 2008-12-04)
    Аудио
    Идентификатор : 1
    Формат : AC-3
    Формат/Информация : Audio Coding 3
    Идентификатор кодека : 2000
    Продолжительность : 1 ч. 35 м.
    Вид битрейта : Постоянный
    Битрейт : 384 Кбит/сек
    Каналы : 2 канала
    Расположение каналов : Front: L R
    Частота : 48, 0 КГц
    Частота кадров : 31, 250 кадров/сек (1536 SPF)
    Битовая глубина : 16 бит
    Метод сжатия : С потерями
    Размер потока : 263 Мбайт (19%)
    Выравнивание : Соединение по промежуткам
    Продолжительность промежутка : 32 мс. (0, 77 видеокадр)
    ServiceKind/String : Complete Main

    Скриншоты для ознакомления



    Все одноименные релизы в Клубе Время раздачи: 24/7 (до появления первых 3-5 скачавших)


    Онлайн видео Час до убийства



    Час до убийства/An Hour to Kill (2018) WEB-DLRip [MVO] [AD]
    Рейтинг →
     (голосов: 1, оценка 4/5, голосовать можно 1 раз )

    Другие торренты по теме:

  • Загадочные убийства: нацисты / Nazi Murder Mysteries (2018) HDTV [H.264 / 1080p-LQ] (1 серия из 6) (Обновляемая)
  • Чисто английские убийства / Убийства в Мидсомере / Midsomer Murders (2017) HDTVRip (сезон 19, серии 1-4 из 6) DexterTV
  • В случае убийства набирайте «М» / Dial M for Murder (1954) BDRip [1080p] 3D [Вертикальная анаморфная стереопара]
  • Глэдис Митчелл | Убийства в Солтмарше. Убийство в опере (2014) [FB2]
  • Код убийства / The Bletchley Circle (2012) BDRip [H.264 / 720p-LQ] (Сезон 1, серии 1-3 из 3) SET, Agatha Studdio
  • Код убийства / The Bletchley Circle (2014) HDTVRip [H.264 / 720p-LQ] (Сезон 2, серии 1-4 из 4) скачать через торрент бесплатно
  • Тёмная сторона растений. Убийства и хаос / Die Tricks der Pflanzen. Tödliche Fallen (2013) HDTVRip [H.264 / 720p] [Сезон 1, 118 серия]
  • Kuroshitsuji: Book of Murder | Black Butler: Book of Murder | Тёмный Дворецкий: Книга убийства | Демон-дворецкий OVA [2014, OVA, 2 эп.] BDRip 1080p Hi10P raw скачать через торрент бесплатно


    • Комментарии (0):

      Информация

      Информация

        Посетители, находящиеся в группе Гости, не могут оставлять комментарии в данной новости.

        ↓ Меню




        ↓ Опрос

        Вы добавили сайт в закладки?
        Да
        Нет


        Top 10 за месяц (Фильмы)