.
Авторизация | Регистрация
Хочешь лучшие торренты? Добавь свой email!
Добавить

Торрент скачать бесплатно

  • support: webmaster@btracker.club
» » Титаны / Titans (2018) WEB-DL [H.264 / 720p-LQ] (сезон 1, серии 1-2 из 12) NewStudio (обновляемая) торрент скачать бесплатно


    Титаны / Titans (2018) WEB-DL [H.264 / 720p-LQ] (сезон 1, серии 1-2 из 12) NewStudio (обновляемая) торрент скачать бесплатно

    Опубликовал: fregat | Дата: 31-10-2018, 05:00 | .torrent скачали: 1

    Титаны / Titans (2018) WEB-DL [H.264 / 720p-LQ] (сезон 1, серии 1-2 из 12) NewStudio (обновляемая)Производство: США/Berlanti Productions, DC Entertainment, Warner Bros. Television
    Жанр: фантастика, фэнтези, боевик, драма, приключения
    Режиссер: Брэд Андерсон, Джон Фоусет, Грант Харви

    Актеры
    Брентон Туэйтс, Анна Диоп, Тиган Крофт, Райан Поттер, Линдси Горт, Шеймус Девер, Минка Келли, Алан Ричсон, Каррен Уолтерс, Бруно Бичир и др.

    Описание

    В надежде остановить своего отца — древнего демона Тригона — обладательница невероятных способностей девушка Рэйвен обращается за помощью к Робину. Бывший напарник Бэтмена теперь сам вершит правосудие на улицах Готэма, но, чтобы остановить зло, Рэйвен и Робину понадобится подмога.

    Дата мировой премьеры: 7 октября 2018
    Продолжительность: ~00: 51: 00 серия
    Качество видео: WEB-DL
    Перевод: Многоголосый закадровый, профессиональный -NewStudio
    Субтитры: русские (форсированные), английские (вшитые, на немецкую речь)
    Внимание! Присутствует ненормативная лексика!
    Видео: AVC/H.264, 1280х720 (16: 9), ~2988 kbps
    Аудио 1: AC-3, 2 ch, 192 Kbps — русский, многоголосый закадровый
    Аудио 2: AAC, 2 ch, 128 Kbps — английский

    Общее
    Уникальный идентификатор : 246470401271828458044991351440615196409 (0xB96C78FDB83D9860A499827BA4E0C6F9)
    Полное имя : E: Титаны_1 сезон любимого сериала_.WEBDL.720p.NewStudio.TV.ADFreeTitans.s01e01.WEBDL.720p.NewStudio.TV.ADFree.mkv
    Формат : Matroska
    Версия формата : Version 4
    Размер файла : 1, 17 Гбайт
    Продолжительность : 50 м. 42 с.
    Общий поток : 3311 Кбит/сек
    Дата кодирования : UTC 2018-10-29 14: 58: 19
    Программа кодирования : mkvmerge v28.2.0 ('The Awakening') 64-bit
    Библиотека кодирования : libebml v1.3.6 + libmatroska v1.4.9
    Видео
    Идентификатор : 2
    Формат : AVC
    Формат/Информация : Advanced Video Codec
    Профиль формата : Baseline@L3.1
    Настройки формата : 4 Ref Frames
    Параметр CABAC формата : Нет
    Параметр RefFrames формата : 4 кадра
    Параметр GOP формата : M=1, N=48
    Идентификатор кодека : V_MPEG4/ISO/AVC
    Продолжительность : 50 м. 42 с.
    Битрейт : 2988 Кбит/сек
    Ширина : 1280 пикселей
    Высота : 720 пикселей
    Соотношение сторон : 16: 9
    Режим частоты кадров : Постоянный
    Частота кадров : 23, 976 (24000/1001) кадра/сек
    Цветовое пространство : YUV
    Субдискретизация насыщенности : 4: 2: 0
    Битовая глубина : 8 бит
    Тип развёртки : Прогрессивная
    Бит/(Пиксели*Кадры) : 0.135
    Размер потока : 1, 06 Гбайт (90%)
    Библиотека кодирования : Zencoder Video Encoding System
    Default : Да
    Forced : Нет
    Цветовой диапазон : Limited
    Основные цвета : BT.709
    Характеристики трансфера : BT.709
    Коэффициенты матрицы : BT.709
    Аудио #1
    Идентификатор : 1
    Формат : AC-3
    Формат/Информация : Audio Coding 3
    Коммерческое название : Dolby Digital
    Идентификатор кодека : A_AC3
    Продолжительность : 50 м. 42 с.
    Вид битрейта : Постоянный
    Битрейт : 192 Кбит/сек
    Каналы : 2 канала
    Channel layout : L R
    Частота : 48, 0 КГц
    Частота кадров : 31, 250 кадров/сек (1536 SPF)
    Битовая глубина : 16 бит
    Метод сжатия : С потерями
    Размер потока : 69, 6 Мбайт (6%)
    Заголовок : NewStudio
    Язык : Russian
    ServiceKind/String : Complete Main
    Default : Да
    Forced : Да
    Аудио #2
    Идентификатор : 3
    Формат : AAC LC
    Формат/Информация : Advanced Audio Codec Low Complexity
    Идентификатор кодека : A_AAC-2
    Продолжительность : 50 м. 42 с.
    Битрейт : 128 Кбит/сек
    Каналы : 2 канала
    Channel layout : L R
    Частота : 48, 0 КГц
    Частота кадров : 46, 875 кадров/сек (1024 SPF)
    Метод сжатия : С потерями
    Размер потока : 46, 4 Мбайт (4%)
    Язык : English
    Default : Нет
    Forced : Нет
    Текст
    Идентификатор : 4
    Формат : UTF-8
    Идентификатор кодека : S_TEXT/UTF8
    Идентификатор кодека/Информация : UTF-8 Plain Text
    Продолжительность : 13 м. 11 с.
    Битрейт : 0 бит/сек
    ElementCount : 3
    Размер потока : 92, 0 байт (0%)
    Язык : Russian
    Default : Да
    Forced : Да


    Онлайн видео Титаны



    Титаны/Titans (2018) WEB-DL [H.264/720p-LQ] (сезон 1, серии 1-2 из 12) NewStudio (обновляемая)
    Рейтинг →
     (голосов: 1, оценка 5/5, голосовать можно 1 раз )

    Другие торренты по теме:

  • Титаны / Titans (2018) WEB-DLRip [H.264 / 1080p-LQ] (сезон 1, серии 1 из 12) LostFilm (обновляемая)
  • Титаны - Дилогия: Битва Титанов / Clash of the Titans (2010), Гнев Титанов / Wrath of the Titans (2012) [H.264 / 1080p-LQ]
  • Юные Титаны, вперед! / Teen Titans Go! (2013) WEB-DLRip (Сезон 1, Серии 01-26 из 26) скачать через торрент бесплатно
  • Юные Титаны, вперед! / Teen Titans Go! (2013) WEB-DL [H.264 / 1080p] (Сезон 1, Серии 01-26 из 26) скачать через торрент бесплатно
  • Титаны: Дилогия / Titans: Dilogy (2010, 2012) BDRip [H.265 / 1080p-LQ]
  • Юные Титаны: Контракт Иуды / Teen Titans: The Judas Contract (2017) WEB-DL [H.264 / 1080p-LQ] [EN / EN Sub]
  • Юные Титаны: Контракт Иуды / Teen Titans: The Judas Contract (2017) BDRip


    • Комментарии (0):

      Информация

      Информация

        Посетители, находящиеся в группе Гости, не могут оставлять комментарии в данной новости.

        ↓ Меню




        ↓ Опрос

        Вы добавили сайт в закладки?
        Да
        Нет


        Top 10 за месяц (Фильмы)